Скачать через торрент музыку DJ Layla - City Of Sleeping Hearts бесплатно без регистрации torrent

Если у вас наблюдаются проблемы со скриншотами, переходом по ссылками, скачиванием торрентов - проблемы в блокировщике рекламы AdBlock. #хорошегоДня!


Статистика раздачи
Размер:  27 MB   |    Зарегистрирован:  5 лет 10 месяцев   |    .torrent скачан:  25 раз   |   
Раздают:  1  
   
Загрузка...
 
Автор Сообщение

Galfimbul

avatar Galfimbul


DJ Layla - City Of Sleeping Hearts
Год выпуска: 2010
Жанр: House
Продолжительность: 00:03:51

Качество: WebRip
Формат: AVI
Видео кодек: H.264
Аудио кодек: MP3
Видео: MPEG4 (H264) 720x304 25.00fps 767 Kbps
Аудио: MPEG-1 Audio Layer 3 48000Hz stereo 192 kbps
E:\Мои Раздачи\DJ Layla - City Of Sleeping Hearts\DJ Layla - City Of Sleeping Hearts.avi
General
Complete name : E:\Мои Раздачи\DJ Layla - City Of Sleeping Hearts\DJ Layla - City Of Sleeping Hearts.avi
Format : AVI
Format/Info : Audio Video Interleave
File size : 26.6 MiB
Duration : 3mn 51s
Overall bit rate : 965 Kbps
Video #0
ID : 0
Format : MPEG-4 Visual
Format profile : Simple@L1
Format settings, BVOP : No
Format settings, QPel : No
Format settings, GMC : No warppoints
Format settings, Matrix : Default (H.263)
Codec ID : FMP4
Duration : 3mn 51s
Bit rate : 767 Kbps
Width : 720 pixels
Height : 304 pixels
Display aspect ratio : 2.35:1
Frame rate : 25.000 fps
Resolution : 8 bits
Colorimetry : 4:2:0
Scan type : Progressive
Bits/(Pixel*Frame) : 0.140
Stream size : 21.1 MiB (80%)
Writing library : Lavc51.40.4
Audio #1
ID : 1
Format : MPEG Audio
Format version : Version 1
Format profile : Layer 3
Format_Settings_Mode : Joint stereo
Format_Settings_ModeExtension : MS Stereo
Codec ID : 55
Codec ID/Hint : MP3
Duration : 3mn 51s
Bit rate mode : Constant
Bit rate : 192 Kbps
Channel(s) : 2 channels
Sampling rate : 44.1 KHz
Stream size : 5.29 MiB (20%)
Alignment : Aligned on interleaves
Interleave, duration : 1013 ms (25.33 video frames)
Interleave, preload duration : 208 ms
Title : audio
Writing library : LAME3.97
Encoding settings : -m j -V 4 -q 0 -lowpass 18.6 -b 192


Трекер:  [ 25-Ноя-2011 13:14 ]

  

Скачать .torrent

Размер .torrent файла 17 KB


Размер: 27 MB
Хэш (hash) релиза: 26a481f9eb1909b222ee5fdbf1568901e5a1c35e

Торренты, похожие на DJ Layla - City Of Sleeping Hearts скачать торрент

Форум Название Автор Размер S L Добавлен
Электронная музыка (video) ·· Dj Layla feat Dee-Dee - City Of Sleeping Hearts (Dj Klubbingman Feat. Trixi Delgado - City Of Sleeping Hearts) [2010, House, DVD] Galfimbul 248915968237 MB 0 0 1294845827

18:23

12-Янв-11

Электронная музыка (video) ·· DJ Layla - Single lady.City of a sleeping hearts(Европа плюс Live /Europa Plus Live 2010) [2010 г., House, SATRip] Galfimbul 223062020213 MB 0 0 1294845738

18:22

12-Янв-11

Еще никто не оставлял запись к записи скачать торрент DJ Layla - City Of Sleeping Hearts . Будь первым!

!Обратная связь