Скачать через торрент музыку Alien Vampires - Live at Energy Open Air 2010 бесплатно без регистрации torrent

Если у вас наблюдаются проблемы со скриншотами, переходом по ссылками, скачиванием торрентов - проблемы в блокировщике рекламы AdBlock. #хорошегоДня!


Статистика раздачи
Размер:  1.35 GB   |    Зарегистрирован:  5 лет 10 месяцев   |    .torrent скачан:  28 раз   |   
Раздают:  1  
   
Загрузка...
 
Автор Сообщение

Galfimbul

avatar Galfimbul


Live at ENERGY OPEN AIR 2010
б/о "Орлёнок", Черкассы, Украина (17.07.2010)
Страна: Италия / Великобритания
Жанр: Industrial / Black Metal / Trance
Продолжительность: 1:27:56
Год выпуска: 2010
Камера: [MXN]

Описание: Живое выступление на ENERGY OPEN AIR Industrial Festival 16-18/07/2010 Черкассы, Украина

Доп. информация: http://www.energyopenair.com

YouTube Sample
General
Complete name : Alien Vampires - Live at ENERGY OPEN AIR 2010 [MXN] ~Full Length~.avi
Format : AVI
Format/Info : Audio Video Interleave
Format profile : OpenDML
File size : 1.35 GiB
Duration : 1h 27mn
Overall bit rate : 2 203 Kbps
Writing application : MEncoder Sherpya-SVN-r30075-4.2.5
Writing library : MPlayer

Video
ID : 0
Format : MPEG-4 Visual
Format profile : Simple@L3
Format settings, BVOP : No
Format settings, QPel : No
Format settings, GMC : No warppoints
Format settings, Matrix : Default (H.263)
Codec ID : XVID
Codec ID/Hint : XviD
Duration : 1h 27mn
Bit rate : 2 000 Kbps
Width : 720 pixels
Height : 432 pixels
Display aspect ratio : 1.667
Frame rate : 25.000 fps
Color space : YUV
Chroma subsampling : 4:2:0
Bit depth : 8 bits
Scan type : Progressive
Bits/(Pixel*Frame) : 0.257
Stream size : 1.23 GiB (91%)
Writing library : XviD 1.2.1 (UTC 2008-12-04)

Audio
ID : 1
Format : MPEG Audio
Format version : Version 1
Format profile : Layer 3
Mode : Joint stereo
Mode extension : MS Stereo
Codec ID : 55
Codec ID/Hint : MP3
Duration : 3mn 12s
Bit rate mode : Variable
Bit rate : 192 Kbps
Channel(s) : 2 channels
Sampling rate : 44.1 KHz
Stream size : 4.30 MiB (0%)
Alignment : Aligned on interleaves
Interleave, duration : 718 ms (17.95 video frames)
Interleave, preload duration : 583 ms
Качество: CAMRip
Контейнер: AVI
Видео кодек: XviD
Аудио кодек: MP3
Видео: Xvid 720x432 25.00fps 2000kbps
Аудио: MPEG Audio Layer 3 44100Hz stereo 188kbps

Трекер:  [ 25-Ноя-2011 13:16 ]

  

Скачать .torrent

Размер .torrent файла 14 KB


Размер: 1.35 GB
Хэш (hash) релиза: 415f80891bfe340fc8b87fdd2baa6fffd2915568

Еще никто не оставлял запись к записи скачать торрент Alien Vampires - Live at Energy Open Air 2010 . Будь первым!

!Обратная связь