Скачать через торрент музыку Conjure One бесплатно без регистрации torrent

Если у вас наблюдаются проблемы со скриншотами, переходом по ссылками, скачиванием торрентов - проблемы в блокировщике рекламы AdBlock. #хорошегоДня!


Статистика раздачи
Размер:  969 MB   |    Зарегистрирован:  5 лет 10 месяцев   |    .torrent скачан:  30 раз   |   
Раздают:  1  
   
Загрузка...
 
Автор Сообщение

Galfimbul

avatar Galfimbul


Conjure One (feat. Kyoko Baertsoen) - Live at Tochka, Moscow (16.10.2010)
Страна: Канада
Жанр: Ambient, Ethereal
Продолжительность: 1:01:33
Год выпуска: 2010
Камера: [MXN]

Описание: 16 октября на сцене клуба Точка выступит уникальный канадский проект CONJURE ONE. Его основателем является Rhys Fulber, известный по своей работе в DELERIUM и FRONTLINE ASSEMBLY. CONJURE ONE снискал широкую популярность благодаря композиции «Tears from the Moon», с вокалом Sinead O’Connor, которая известна по отличнейшему ремиксу DJ Tiesto, а также как «так самая песня из рекламы Bon Aqua». Эта композиция до сих пор входит в ротацию Радио 7.
В октябре 2010 CONJURE ONE выпускает новый альбом “EXILARCH”, в поддержку которого отправится в американское турне совместно с проектом RECOIL (Alan Wilder, ex-Depeche Mode), а также даст два эксклюзивных концерта в России (Москва и Санкт-Петербург).

Чего ожидать от выступления CONJURE ONE говорит нам сам Rhys Fulber: “Живой концерт – совершенно особенная часть работы коллектива. С одной стороны, в нем много спонтанного, много жесткого бита, но ничто не затемняет работу блестящих вокалисток, выступающих с проектом на отдельных концертах”

Доп. информация: http://www.synth.ru/index.php?menu=1&lang=rus&item=3

Треклист:
1. Places That Don't Exist
2. Like Ice
3. Sleep
4. Extraordinary Ways
5. Pilgrimage
6. I Dream In Colour
7. Forever Lost
8. Center Of The Sun
9. Tears From The Moon (YouTube preview)
10. Distance
11. Redemption (YouTube preview)
General
Complete name : Conjure One - Live at Tochka, Moscow (16.10.2010) [MXN] ~Full Length~.avi
Format : AVI
Format/Info : Audio Video Interleave
File size : 969 MiB
Duration : 1h 1mn
Overall bit rate : 2 201 Kbps
Writing application : MEncoder Sherpya-SVN-r30075-4.2.5
Writing library : MPlayer

Video
ID : 0
Format : MPEG-4 Visual
Format profile : Simple@L3
Format settings, BVOP : No
Format settings, QPel : No
Format settings, GMC : No warppoints
Format settings, Matrix : Default (H.263)
Codec ID : XVID
Codec ID/Hint : XviD
Duration : 1h 1mn
Bit rate : 2 000 Kbps
Width : 720 pixels
Height : 432 pixels
Display aspect ratio : 1.667
Frame rate : 25.000 fps
Color space : YUV
Chroma subsampling : 4:2:0
Bit depth : 8 bits
Scan type : Progressive
Bits/(Pixel*Frame) : 0.257
Stream size : 881 MiB (91%)
Writing library : XviD 1.2.1 (UTC 2008-12-04)

Audio
ID : 1
Format : MPEG Audio
Format version : Version 1
Format profile : Layer 3
Mode : Joint stereo
Mode extension : MS Stereo
Codec ID : 55
Codec ID/Hint : MP3
Duration : 1h 1mn
Bit rate mode : Variable
Bit rate : 192 Kbps
Channel(s) : 2 channels
Sampling rate : 44.1 KHz
Stream size : 83.1 MiB (9%)
Alignment : Aligned on interleaves
Interleave, duration : 26 ms (0.65 video frame)
Interleave, preload duration : 570 ms
Качество: CAMRip
Контейнер: AVI
Видео кодек: XviD
Аудио кодек: MP3
Видео: Xvid 720x432 25.00fps 2000kbps
Аудио: MPEG Audio Layer 3 44100Hz stereo 188kbps

Трекер:  [ 25-Ноя-2011 13:50 ]

  

Скачать .torrent

Размер .torrent файла 19 KB


Размер: 969 MB
Хэш (hash) релиза: e5e4c2fb485bab5997ce82e8f697419da0864ad8

Еще никто не оставлял запись к записи скачать торрент Conjure One . Будь первым!

!Обратная связь