Скачать порно через торрент 19th Apostle, Invasion - Shin*ha Edition- 19-й апостол, Invasion - Shin * ха-издание UnionPeer.org бесплатно онлайн HD качество

Скачать новое порно 2015, 2014 новинки через торрент UnionPeer.org

Порно торрент бесплатно ЮнионПир.орг

Если у вас наблюдаются проблемы со скриншотами, переходом по ссылками, скачиванием торрентов - проблемы в блокировщике рекламы AdBlock. #хорошегоДня!


Статистика раздачи
Размер:  838 MB   |    Зарегистрирован:  4 года 2 месяца   |    .torrent скачан:  232 раза   |   
Раздают:  1  
   
Загрузка...
 
Автор Сообщение

LinGr

avatar LinGr


19th Apostle, Invasion - Shin*ha Edition-
19使徒、侵入 - 新* HA版 -
19-й апостол, Invasion - Shin * ха-издание

Год производства: 2012 г.
Жанр: Glasses Tentacle Big Breasts
Серии: 1
Продолжительность: 14:09
Цензура: Есть во всех файлах

Язык: Японский
Озвучка: Оригинальная
Студия: BlackTeaGarden


Описание: Inflecting, parasitical, tentacled ...T Angel attacks.

Neon G*nesis Evangelion 3D adult animation works
< M*kinami Mari Ill*strious>

This time the sexual type of the unknown beings "Angel" is coming to attack.
Parasitized Shinji is completely turning into a tentacled monster for breeding.
A terribly tentacled r*pe is coming for M*kinami.

Доп. информация:
30fps full animation
* Animation Technique "3Dmix2D" adopted
* Animation resolution 800*600

Качество видео: GameRip
Формат видео: WMV
Видео кодек: Windows Media
Аудио кодек: WMA
Видео: Windows Media Video 9 800x600 30fps 7790kbps [Raw Video 0]
Аудио 1: WMA Pro 44100Hz stereo 440kbps [Raw Audio 1]

Video
ID : 1
Format : VC-1
Format profile : MP@HL
Codec ID : WMV3
Codec ID/Info : Windows Media Video 9
Codec ID/Hint : WMV3
Description of the codec : Windows Media Video 9
Duration : 14mn 9s
Bit rate mode : Variable
Bit rate : 7 790 Kbps
Width : 800 pixels
Height : 600 pixels
Display aspect ratio : 4:3
Frame rate : 30.000 fps
Bit depth : 8 bits
Scan type : Progressive
Compression mode : Lossy
Bits/(Pixel*Frame) : 0.541
Stream size : 789 MiB (94%)
Language : Latvian

Audio
ID : 2
Format : WMA
Format profile : Pro
Codec ID : 162
Codec ID/Info : Windows Media Audio
Description of the codec : Windows Media Audio 10 Professional - 440 kbps, 44 kHz, 2 channel 24 bit (A/V) 1-pass CBR
Duration : 14mn 9s
Bit rate mode : Constant
Bit rate : 440 Kbps
Channel(s) : 2 channels
Sampling rate : 44.1 KHz
Bit depth : 24 bits
Stream size : 44.5 MiB (5%)


Трекер:  [ 18-Авг-2013 14:44 ]

  

Скачать .torrent

Размер .torrent файла 17 KB


Размер: 838 MB
Хэш (hash) релиза: e52b9327a25f585908f7bd05c2f338442172209f

bot

Топик был перенесен в форум Хентай | С цензурой

Перенес LinGr

Хотите добавить комментарий к записи скачать торрент 19th Apostle, Invasion - Shin*ha Edition- 19-й апостол, Invasion - Shin * ха-издание

!Обратная связь