Скачать через торрент Хеллсинг: Рассвет Hellsing: The Dawn бесплатно Аниме Все серии на русском torrent

Если у вас наблюдаются проблемы со скриншотами, переходом по ссылками, скачиванием торрентов - проблемы в блокировщике рекламы AdBlock. #хорошегоДня!


Статистика раздачи
Размер:  1.35 GB   |    Зарегистрирован:  4 года 3 месяца   |    .torrent скачан:  120 раз   |   
Раздают:  1  
   
Загрузка...
 
Автор Сообщение

Galfimbul

avatar Galfimbul


Хеллсинг: Рассвет / Hellsing: The Dawn

Страна: Япония
Год выпуска: 2012 г.
Жанр: приключения, мистика, ужасы
Тип: Special
Продолжительность: ~10 мин. серия
Режиссер: Токоро Томокадзу
Студия:

Описание: Сентябрь 1944 года. Вторая Мировая Война продолжает бушевать в Европе. Чтобы получить преимущество в войне, нацисты начинают проводить эксперименты по созданию искусственных вампиров. И хотя их эксперименты ещё далеки от завершения, даже их промежуточные исследования представляют огромную опасность для антигитлеровской коалиции. В попытке остановить нацистский проект и защитить Англию, сэр Артур Хеллсинг посылает своих лучших агентов - Уолтера К. Дорнеса и Алукарда, в оккупированную Польшу, где проводятся чудовищные эксперименты.

Качество: BDRip
Тип релиза: Без хардсаба
Формат видео: MKV
Наличие линковки: Нет
Релиз/Автор рипа: Sensetivity-raws
Видео: x264(Hi10p), 1280x720p, ~5073 kbps, 23.976 fps
Аудио: - AC3, 320 Kbps, 48.0 KHz, 2 channels Язык Русский (в составе контейнера) ; Озвучка: Одноголосная loster01
Аудио 2: - AC3, 320 Kbps, 48.0 KHz, 2 channels Язык Японский
Субтитры: ASS, встроенные Язык субтитров русский ; Перевод: Mr.Faer [OlSkAn]
GeneralUnique ID : 215526307148704921417460843189550457239 (0xA224DB5C19ADB973B143AB89A9D42197)Complete name : F:\RIP\H\Hellsing Ultimate - The Dawn [BDRip 720p]\Hellsing Ultimate - The Dawn I.mkvFormat : MatroskaFormat version : Version 4 / Version 2File size : 380 MiBDuration : 9mn 7sOverall bit rate : 5 829 KbpsMovie name : Hellsing Ultimate - The Dawn IEncoded date : UTC 2013-08-18 07:45:58Writing application : mkvmerge v6.2.0 (''Promised Land'') built on Apr 28 2013 12:22:01Writing library : libebml v1.3.0 + libmatroska v1.4.0

VideoID : 1Format : AVCFormat/Info : Advanced Video CodecFormat profile : High 10@L4.1Format settings, CABAC : YesFormat settings, ReFrames : 6 framesCodec ID : V_MPEG4/ISO/AVCDuration : 9mn 7sBit rate : 5 073 KbpsWidth : 1 280 pixelsHeight : 720 pixelsDisplay aspect ratio : 16:9Frame rate mode : ConstantFrame rate : 23.976 fpsColor space : YUVChroma subsampling : 4:2:0Bit depth : 10 bitsScan type : ProgressiveBits/(Pixel*Frame) : 0.230Stream size : 331 MiB (87%)Title : BDRip by SensetivityWriting library : x264 core 128 r2216+698 b3c1019Encoding settings : cabac=1 / ref=6 / deblock=1:-2:-2 / analyse=0x3:0x113 / me=umh / subme=9 / psy=1 / fade_compensate=0.00 / psy_rd=0.90:0.00 / mixed_ref=1 / me_range=30 / chroma_me=1 / trellis=2 / 8x8dct=1 / cqm=0 / deadzone=21,11 / fast_pskip=1 / chroma_qp_offset=-2 / threads=6 / lookahead_threads=1 / sliced_threads=0 / nr=0 / decimate=1 / interlaced=0 / bluray_compat=0 / constrained_intra=0 / fgo=0 / bframes=10 / b_pyramid=2 / b_adapt=2 / b_bias=0 / direct=1 / weightb=1 / open_gop=0 / weightp=2 / keyint=240 / keyint_min=12 / scenecut=40 / intra_refresh=0 / rc_lookahead=30 / rc=crf / mbtree=1 / crf=13.5000 / qcomp=0.80 / qpmin=0 / qpmax=81 / qpstep=6 / ip_ratio=1.40 / aq=2:0.80Language : JapaneseDefault : YesForced : No

Audio #1ID : 2Format : AC-3Format/Info : Audio Coding 3Mode extension : CM (complete main)Format settings, Endianness : BigCodec ID : A_AC3Duration : 9mn 7sBit rate mode : ConstantBit rate : 320 KbpsChannel(s) : 2 channelsChannel positions : Front: L RSampling rate : 48.0 KHzBit depth : 16 bitsCompression mode : LossyStream size : 20.9 MiB (5%)Title : loster01Language : RussianDefault : NoForced : No

Audio #2ID : 3Format : AC-3Format/Info : Audio Coding 3Mode extension : CM (complete main)Format settings, Endianness : BigCodec ID : A_AC3Duration : 9mn 7sBit rate mode : ConstantBit rate : 320 KbpsChannel(s) : 2 channelsChannel positions : Front: L RSampling rate : 48.0 KHzBit depth : 16 bitsCompression mode : LossyStream size : 20.9 MiB (5%)Title : AC3 2.0Language : JapaneseDefault : NoForced : No

TextID : 4Format : ASSCodec ID : S_TEXT/ASSCodec ID/Info : Advanced Sub Station AlphaCompression mode : LosslessTitle : Mr.Faer [OlSkAn]Language : RussianDefault : NoForced : No
01. Рассвет: Дополнение к «Хеллсингу»
02. Рассвет: Дополнение к «Хеллсингу» Эпизод Ⅱ
03. Рассвет: Дополнение к «Хеллсингу» Эпизод Ⅲ


Трекер:  [ 18-Авг-2013 14:31 ]

  

Скачать .torrent

Размер .torrent файла 7 KB


Размер: 1.35 GB
Хэш (hash) релиза: 75a3d53d79a365e66c3de3377208828661dba912
Подписка на обновления:

bot

Топик был перенесен в форум Аниме | HD Rips

Перенес Galfimbul

Хотите добавить комментарий к записи скачать торрент Хеллсинг: Рассвет Hellsing: The Dawn

!Обратная связь