Скачать через торрент музыку Hurts - Wonderful life бесплатно без регистрации torrent

Если у вас наблюдаются проблемы со скриншотами, переходом по ссылками, скачиванием торрентов - проблемы в блокировщике рекламы AdBlock. #хорошегоДня!


Статистика раздачи
Размер:  75 MB   |    Зарегистрирован:  5 лет 10 месяцев   |    .torrent скачан:  48 раз   |   
Раздают:  1  
   
Загрузка...
 
Автор Сообщение

Galfimbul

avatar Galfimbul


Hurts - Wonderful life

Страна: UK
Жанр: Synthpop / Electronic
Продолжительность: 00:04:04
Год выпуска: 2010

Качество: DVDRip
Контейнер: AVI
Видео кодек: XviD
Аудио кодек: AC3
Видео: Xvid 720x400 16:9 2246kbps 25.00fps
Аудио: Dolby AC3 320kbps 48000Hz stereo

Описание: Клип на мировой хит от британской группу "Hurts".
 
GeneralComplete name : C:\Documents and Settings\Admin\Мои документы\Torrents\Hurts - Wonderful life.aviFormat : AVIFormat/Info : Audio Video InterleaveFile size : 75.0 MiBDuration : 4mn 4sOverall bit rate : 2 576 KbpsWriting application : VirtualDubMod 1.5.10.2 (build 2540/release)Writing library : VirtualDubMod build 2540/release

VideoID : 0Format : MPEG-4 VisualFormat profile : Advanced Simple@L5Format settings, BVOP : YesFormat settings, QPel : NoFormat settings, GMC : No warppointsFormat settings, Matrix : Default (MPEG)Codec ID : XVIDCodec ID/Hint : XviDDuration : 4mn 4sBit rate : 2 246 KbpsWidth : 720 pixelsHeight : 400 pixelsDisplay aspect ratio : 16:9Frame rate : 25.000 fpsColor space : YUVChroma subsampling : 4:2:0Bit depth : 8 bitsScan type : ProgressiveCompression mode : LossyBits/(Pixel*Frame) : 0.312Stream size : 65.4 MiB (87%)Writing library : XviD 1.2.1 (UTC 2008-12-04)

AudioID : 1Format : AC-3Format/Info : Audio Coding 3Mode extension : CM (complete main)Codec ID : 2000Duration : 4mn 4sBit rate mode : ConstantBit rate : 320 KbpsChannel(s) : 2 channelsChannel positions : Front: L RSampling rate : 48.0 KHzBit depth : 16 bitsCompression mode : LossyStream size : 9.32 MiB (12%)Alignment : Aligned on interleavesInterleave, duration : 40 ms (1.00 video frame)Interleave, preload duration : 512 ms


Трекер:  [ 25-Ноя-2011 23:25 ]

  

Скачать .torrent

Размер .torrent файла 12 KB


Размер: 75 MB
Хэш (hash) релиза: 77484c726673ac76b8e054111333e239f0c46a57

Торренты, похожие на Hurts - Wonderful life скачать торрент

Форум Название Автор Размер S L Добавлен
Собственные оцифровки ·· (Synth-pop, Pop Rock) Hurts - Wonderful Life - Vinyl - [16/44] - 2010, FLAC (tracks), lossless AqvaGen 6333199860 MB 0 0 1294848802

19:13

12-Янв-11

Электронная музыка (video) ·· Hurts - Wonderful Life (Live) HD 720p [2010, Electronic, Synthpop, HDTVRip] L 234318000223 MB 0 0 1294848458

19:07

12-Янв-11

Электронная музыка (video) ·· Hurts - Wonderful Life HD 1080p [2010, Synth-pop, HDTVRip] AqvaGen 306179960292 MB 0 0 1294848446

19:07

12-Янв-11

Электронная музыка (video) ·· Hurts - Wonderful Life (The Video Pool UK) [2010, UK SynthPop, DVD] (MviD) Galfimbul 223045636213 MB 0 0 1294845516

18:18

12-Янв-11

Электронная музыка (video) ·· Hurts - Wonderful life [2010 г.,Еlectronic,Synthpop, SATRip] L 135102468129 MB 0 0 1294845428

18:17

12-Янв-11

Электронная музыка (video) ·· Hurts - Better Than Love; Wonderful Life; Stay; Blood, Tears & Gold; An Interview [2010; UK SynthPop; Web-RemuX] L 477533782455 MB 0 0 1294845450

18:17

12-Янв-11

Еще никто не оставлял запись к записи скачать торрент Hurts - Wonderful life . Будь первым!

!Обратная связь