Скачать порно через торрент Peace Hame! Pisu Hame! UnionPeer.org бесплатно онлайн HD качество

Скачать новое порно 2015, 2014 новинки через торрент UnionPeer.org

Порно торрент бесплатно ЮнионПир.орг

Если у вас наблюдаются проблемы со скриншотами, переходом по ссылками, скачиванием торрентов - проблемы в блокировщике рекламы AdBlock. #хорошегоДня!


Статистика раздачи
Размер:  6.53 GB   |    Зарегистрирован:  4 года   |    .torrent скачан:  316 раз   |   
Раздают:  1  
   
Загрузка...
 
Автор Сообщение

LinGr

avatar LinGr


Peace Hame! / Pisu Hame! / ピスはめ!
Вставить пистон!

Год производства: 2012 г.
Жанр: Big tits, Group sex, Oral sex, Titfuck, Paizuri, Straight, Idol, Students, Rape, X-Ray
Серии: ep. 1-5 of 6
Продолжительность: 5х~22 min
Цензура: Есть

Озвучка: Оригинальная (Японский)

Режиссер: Kondou Takashi
Автор оригинала: Shiwasu no Okina
Студия: Queen Bee, Studio 9 Maiami

Описание RUS: Сюжет разворачивается в средней школе Японии в клубе по Кэндо (фехтование палкой, если коротко), где главный герой по имени Тамао Тсукума просто с ума сходит по одной девочке Киритани Кономе, которая еще и является капитаном и чемпионом клуба по Кэндо. И вот в один прекрасный день удача поворачивается к нему лицом, хоть и довольно специфическим способом. Его любимая подходит к нему, берет за руку и ведет в неизвестном направлении. Что же будет дальше?

Описание ENG: Tamao Tsukamu, a second year member of the Kendo-Club, had always had a crush on his Senpai, Kiritani Konome a third year. One day, after training, he was asked to help out Kiritani to complete this year''s Album for the school council, a VERY Special Album...

Информационные ссылки: AniDB - World Art - ХентайМаг

Качество видео: 5x DVD5
Формат видео: DVD Video
Видео кодек: MPEG2
Аудио кодек: AC3
Видео: 720х480, (16:9), 29,970 кадров/сек, ~ 8000 Кбит/сек, NTSC
Аудио: JAP, AC-3, 2 канала, 192 Кбит/сек (224 Кбит/сек - 4 и 5 эпизод) , 48,0 КГц

Общее
Полное имя : J:\VIDEO_TS\VTS_01_1.VOB
Формат : MPEG-PS
Размер файла : 1024 Мбайт
Продолжительность : 5 м. 17 с.
Общий поток : 27,0 Мбит/сек

Видео
Идентификатор : 224 (0xE0)
Формат : MPEG Video
Версия формата : Version 2
Профиль формата : Main@Main
Параметр BVOP формата : Да
Параметр матрицы формата : Выборочная
Параметр GOP формата : Variable
Продолжительность : 5 м. 17 с.
Битрейт : 26,3 Мбит/сек
Максимальный битрейт : 8000 Кбит/сек
Ширина : 720 пикселей
Высота : 480 пикселей
Соотношение сторон : 16:9
Частота кадров : 29,970 кадров/сек
Стандарт вещания : NTSC
Цветовое пространство : YUV
Субдискретизация насыщенности : 4:2:0
Битовая глубина : 8 бит
Тип развёртки : Чересстрочная
Порядок развёртки : Верхнее поле первое
Метод сжатия : С потерями
Бит/(Пиксели*Кадры) : 2.540
Временной код первого кадра : 01:00:00:00
Оригинал временного кода : Group of pictures header
Размер потока : 996 Мбайт (97%)

Аудио
Идентификатор : 189 (0xBD)-128 (0x80)
Формат : AC-3
Формат/Информация : Audio Coding 3
Расширение режима : CM (complete main)
Параметр Endianness формата : Big
Режим смешивания : DVD-Video
Продолжительность : 5 м. 17 с.
Вид битрейта : Постоянный
Битрейт : 192 Кбит/сек
Каналы : 2 канала
Расположение каналов : Front: L R
Частота : 48,0 КГц
Битовая глубина : 16 бит
Метод сжатия : С потерями
Размер потока : 7,27 Мбайт (1%)

Меню


Трекер:  [ 18-Авг-2013 14:44 ]

  

Скачать .torrent

Размер .torrent файла 17 KB


Размер: 6.53 GB
Хэш (hash) релиза: 5e7774af2caaeeaf5f1600063b7c76cce62d90ff

bot

Топик был перенесен в форум Хентай | С цензурой

Перенес LinGr

Хотите добавить комментарий к записи скачать торрент Peace Hame! Pisu Hame!

!Обратная связь