Скачать порно через торрент Liza aime Lou Charmelle Liza aime Lou Charmelle UnionPeer.org бесплатно онлайн HD качество

Скачать новое порно 2015, 2014 новинки через торрент UnionPeer.org

Порно торрент бесплатно ЮнионПир.орг

Если у вас наблюдаются проблемы со скриншотами, переходом по ссылками, скачиванием торрентов - проблемы в блокировщике рекламы AdBlock. #хорошегоДня!


Статистика раздачи
Размер:  1.39 GB   |    Зарегистрирован:  4 года   |    .torrent скачан:  184 раза   |   
Раздают:  1  
   
Загрузка...
 
Автор Сообщение

LinGr

avatar LinGr



Liza aime Lou Charmelle / Liza aime Lou Charmelle
Год производства: 2012 г.
Страна: FR
Жанр: Gonzo
Продолжительность: 1h 13mn
Язык: Французский

Режиссер: Liza Del Sierra
Студия: Colmax

В ролях: Liza Del Sierra- Lou Charmelle- Michael Cheritto- Ricky Mancini- Tony Carrera

Format : MPEG-4
Format profile : Base Media
Codec ID : isom
File size : 1.39 GiB
Duration : 1h 13mn
Overall bit rate : 2 700 Kbps
Encoded date : UTC 2013-08-16 07:43:31
Tagged date : UTC 2013-08-16 07:43:31

Video
ID : 2
Format : AVC
Format/Info : Advanced Video Codec
Format profile : Baseline@L3.0
Format settings, CABAC : No
Format settings, ReFrames : 1 frame
Format settings, GOP : M=1, N=25
Muxing mode : Container profile=Baseline@4.1
Codec ID : avc1
Codec ID/Info : Advanced Video Coding
Duration : 1h 13mn
Bit rate : 2 568 Kbps
Width : 1 280 pixels
Height : 720 pixels
Display aspect ratio : 16:9
Frame rate mode : Constant
Frame rate : 29.970 fps
Original frame rate : 29.000 fps
Color space : YUV
Chroma subsampling : 4:2:0
Bit depth : 8 bits
Scan type : Progressive
Bits/(Pixel*Frame) : 0.093
Stream size : 1.32 GiB (95%)
Writing library : N
Language : English

Audio
ID : 1
Format : AAC
Format/Info : Advanced Audio Codec
Format profile : LC
Codec ID : 40
Duration : 1h 13mn
Bit rate mode : Constant
Bit rate : 127 Kbps
Channel(s) : 2 channels
Channel positions : Front: L R
Sampling rate : 44.1 KHz
Compression mode : Lossy
Stream size : 67.0 MiB


Трекер:  [ 18-Авг-2013 08:44 ]

  

Скачать .torrent

Размер .torrent файла 14 KB


Размер: 1.39 GB
Хэш (hash) релиза: e85a641ba353a9fe9f6394880644f90e2f916fd5

Еще никто не оставлял запись к записи скачать торрент Liza aime Lou Charmelle Liza aime Lou Charmelle . Будь первым!

!Обратная связь