Скачать через торрент музыку Luc Ferrari & Otomo Yoshihide - Slow Landing бесплатно без регистрации torrent

Если у вас наблюдаются проблемы со скриншотами, переходом по ссылками, скачиванием торрентов - проблемы в блокировщике рекламы AdBlock. #хорошегоДня!


Статистика раздачи
Размер:  109 MB   |    Зарегистрирован:  5 лет 10 месяцев   |    .torrent скачан:  25 раз   |   
Раздают:  1  
   
Загрузка...
 
Автор Сообщение

Galfimbul

avatar Galfimbul


Luc Ferrari & Otomo Yoshihide - Slow Landing

Год выпуска: 2003
Жанр: Musique Concrete, Experimental Turntablism
Продолжительность: 10.53

Режиссер: Miyaoka Hideyuki

В ролях: Luc Ferrari, Otomo Yoshihide

Описание: Фильм прилагался в качестве бонуса к альбому Luc Ferrari & Otomo Yoshihide - Archives Sauvaes Des Eaux
General
Complete name : D:\Music\!Otomo Yoshihide\luc ferrari & otomo yoshihide - archives sauvйes des eaux\luc+otomo.mpg
Format : MPEG-PS
File size : 109 MiB
Duration : 10mn 52s
Overall bit rate : 1 395 Kbps

Video
ID : 224 (0xE0)
Format : MPEG Video
Format version : Version 1
Format settings, BVOP : Yes
Format settings, Matrix : Default
Duration : 10mn 52s
Bit rate mode : Constant
Bit rate : 1 116 Kbps
Nominal bit rate : 1 150 Kbps
Width : 352 pixels
Height : 240 pixels
Display aspect ratio : 4:3
Frame rate : 29.970 fps
Resolution : 8 bits
Scan type : Progressive
Bits/(Pixel*Frame) : 0.441
Stream size : 86.8 MiB (80%)

Audio
ID : 192 (0xC0)
Format : MPEG Audio
Format version : Version 1
Format profile : Layer 2
Duration : 10mn 52s
Bit rate mode : Constant
Bit rate : 224 Kbps
Channel(s) : 2 channels
Sampling rate : 44.1 KHz
Stream size : 17.4 MiB (16%)
Качество: CamRip
Формат: MPEG
Видео кодек: MPEG1
Аудио кодек: MPEG Audio
Видео: MPEG-1 4:3 352x240 CBR 1 116 Kbps
Аудио: MPEG Audio, 224 kbs, 44.1 KHz, 2 channels

Трекер:  [ 25-Ноя-2011 23:35 ]

  

Скачать .torrent

Размер .torrent файла 17 KB


Размер: 109 MB
Хэш (hash) релиза: 24946a6280bd0bafa74498dc4dbfd512561a2785

Еще никто не оставлял запись к записи скачать торрент Luc Ferrari & Otomo Yoshihide - Slow Landing . Будь первым!

!Обратная связь