Скачать порно через торрент Akina to Onsen de H Shiyo! Займусь сексом с Акиной на горячих источниках! UnionPeer.org бесплатно онлайн HD качество

Скачать новое порно 2015, 2014 новинки через торрент UnionPeer.org

Порно торрент бесплатно ЮнионПир.орг

Если у вас наблюдаются проблемы со скриншотами, переходом по ссылками, скачиванием торрентов - проблемы в блокировщике рекламы AdBlock. #хорошегоДня!


Статистика раздачи
Размер:  2.47 GB   |    Зарегистрирован:  4 года   |    .torrent скачан:  171 раз   |   
Раздают:  1  
   
Загрузка...
 
Автор Сообщение

LinGr

avatar LinGr


明菜と温泉でHしよっ | Akina to Onsen de H Shiyo!
Займусь сексом с Акиной на горячих источниках!

Год выпуска: 2010
Страна: Япония
Жанр: bdsm, big tits, oral, straight, titfuck
Продолжительность: >1 эп. 20 мин.
Субтитры: Отсутствуют
Цензура: Присутствует
Режиссёр: Miura Saburou
Студия: ChiChinoya
Описание:
Miyazawa Akina is the captain of a college softball team who has just hit a string of good luck. Her team has won the tournament, her love life is progressing well and her childhood friend has now become her boyfriend, and she recently won two tickets to a nearby hot springs. In high spirits, she fully intends to relax and celebrate her victories, but she might not be able to get much rest in such a romantic location, alone with the man she loves.
Информационные ссылки: AniDB || MAL || World Art || ХентайМаг
Исходник: DVD-5
Видео: MPEG2 | NTSC | 16x9 | 720x480 | 9000 Kbps
Аудио JAP: AC-3 | 48000Hz | 192 Kbps | 2ch

Список эпизодов:
01. OVA



General
Complete name : L:\VIDEO_TS\VTS_01_1.VOB
Format : MPEG-PS
File size : 1 024 MiB
Duration : 18mn 10s
Overall bit rate mode : Variable
Overall bit rate : 7 878 Kbps

Video
ID : 224 (0xE0)
Format : MPEG Video
Format version : Version 2
Format profile : Main@Main
Format settings, BVOP : Yes
Format settings, Matrix : Custom
Format settings, GOP : M=3, N=15
Duration : 18mn 10s
Bit rate mode : Variable
Bit rate : 7 529 Kbps
Maximum bit rate : 9 000 Kbps
Width : 720 pixels
Height : 480 pixels
Display aspect ratio : 16:9
Frame rate : 29.970 fps
Standard : NTSC
Color space : YUV
Chroma subsampling : 4:2:0
Bit depth : 8 bits
Scan type : Interlaced
Scan order : Bottom Field First
Compression mode : Lossy
Bits/(Pixel*Frame) : 0.727
Stream size : 979 MiB (96%)
Color primaries : SMPTE 170M
Transfer characteristics : SMPTE 170M
Matrix coefficients : SMPTE 170M

Audio
ID : 189 (0xBD)-128 (0x80)
Format : AC-3
Format/Info : Audio Coding 3
Mode extension : CM (complete main)
Muxing mode : DVD-Video
Duration : 18mn 10s
Bit rate mode : Constant
Bit rate : 192 Kbps
Channel(s) : 2 channels
Channel positions : Front: L R
Sampling rate : 48.0 KHz
Bit depth : 16 bits
Compression mode : Lossy
Stream size : 25.0 MiB (2%)


Трекер:  [ 18-Авг-2013 14:45 ]

  

Скачать .torrent

Размер .torrent файла 13 KB


Размер: 2.47 GB
Хэш (hash) релиза: 6d24c4c720fc872b27fbce383a63d4e82f31518d

bot

Топик был перенесен в форум Хентай | С цензурой

Перенес LinGr

Хотите добавить комментарий к записи скачать торрент Akina to Onsen de H Shiyo! Займусь сексом с Акиной на горячих источниках!

!Обратная связь