Скачать порно через торрент Crimson Girls: Chikan Shihai Девушка-детектив: Похотливые преступники UnionPeer.org бесплатно онлайн HD качество

Скачать новое порно 2015, 2014 новинки через торрент UnionPeer.org

Порно торрент бесплатно ЮнионПир.орг

Если у вас наблюдаются проблемы со скриншотами, переходом по ссылками, скачиванием торрентов - проблемы в блокировщике рекламы AdBlock. #хорошегоДня!


Статистика раздачи
Размер:  1.25 GB   |    Зарегистрирован:  4 года 3 месяца   |    .torrent скачан:  128 раз   |   
Раздают:  1  
   
Загрузка...
 
Автор Сообщение

LinGr

avatar LinGr


クリムゾンガールズ ~痴漢支配~ | Crimson Girls: Chikan Shihai
Девушка-детектив: Похотливые преступники

Год выпуска: 2012
Страна: Япония
Жанр: big tits, chikan, oral sex, rape, toys
Продолжительность: >1 эп. 20 мин.
Субтитры: Отсутствуют
Цензура: Присутствует
Режиссёр: Kimura Hiroshi
Студия: Rabbit Gate
Описание:
The Crimson Girls protect women from train molesters. Mitsu, one of the two members, caught the attention of a unique man who could make a woman orgasm with just a touch. He and some of his friends trap Mitsu on the train and brought her to the hotel where she was tortured and had her virginity taken. Now that one of the Crimson Girls has succumbed to his will, his next target is Saki...
Информационные ссылки: AniDB || MAL || World Art || ХентайМаг
Исходник: DVD-5
Видео: MPEG2 | NTSC | 16x9 | 720x480 | 7800 Kbps
Аудио JAP: AC-3 | 48000Hz | 192 Kbps | 2ch

Список эпизодов:
01. Honey Submission

General
Complete name : L:\VIDEO_TS\VTS_01_1.VOB
Format : MPEG-PS
File size : 1 024 MiB
Duration : 16mn 48s
Overall bit rate : 8 513 Kbps
Writing library : encoded by TMPGEnc 4.0 XPress Version. 4.2.1.188

Video
ID : 224 (0xE0)
Format : MPEG Video
Format version : Version 2
Format profile : Main@Main
Format settings, BVOP : Yes
Format settings, Matrix : Custom
Format settings, GOP : M=3, N=16
Duration : 16mn 48s
Bit rate : 8 152 Kbps
Maximum bit rate : 7 800 Kbps
Width : 720 pixels
Height : 480 pixels
Display aspect ratio : 16:9
Frame rate : 29.970 fps
Standard : NTSC
Color space : YUV
Chroma subsampling : 4:2:0
Bit depth : 8 bits
Scan type : Progressive
Compression mode : Lossy
Bits/(Pixel*Frame) : 0.787
Stream size : 980 MiB (96%)
Writing library : TMPGEnc XPress 4.2.1.188
Color primaries : SMPTE 170M
Transfer characteristics : SMPTE 170M
Matrix coefficients : SMPTE 170M

Audio
ID : 189 (0xBD)-128 (0x80)
Format : AC-3
Format/Info : Audio Coding 3
Mode extension : CM (complete main)
Muxing mode : DVD-Video
Duration : 16mn 48s
Bit rate mode : Constant
Bit rate : 192 Kbps
Channel(s) : 2 channels
Channel positions : Front: L R
Sampling rate : 48.0 KHz
Bit depth : 16 bits
Compression mode : Lossy
Stream size : 23.1 MiB (2%)


Трекер:  [ 18-Авг-2013 14:45 ]

  

Скачать .torrent

Размер .torrent файла 13 KB


Размер: 1.25 GB
Хэш (hash) релиза: 2a04ab722eacdf900f5f5c74ae02604586fd8cbc

Торренты, похожие на Crimson Girls: Chikan Shihai Девушка-детектив: Похотливые преступники скачать торрент

Форум Название Автор Размер S L Добавлен
Хентай, порно и эротические мультфильмы ·· Crimson Girls: Chikan Shihai / Девушка Детектив: Похотливые преступники (Kimura Hiroshi, Rabbit Gate) (ep.1-3 of 3) [cen] [2012-2015 гг. Chikan, Anal sex, Oral sex, Rape, Big tits, Gangbang, Toys. DVDRip] [jap / eng / chi /rus] Galfimbul 477695771456 MB 3 0 1453588283

01:31

24-Янв-16

Хентай | С цензурой ·· Crimson Girls: Chikan Shihai / Девушка Детектив: Похотливые преступники (Kimura Hiroshi, Rabbit Gate) (ep.1) [cen] [2012 г. Chikan, Oral sex, Rape, Big tits, Gangbang, Toys. DVDRip] [jap / eng / rus] Galfimbul 213187118203 MB 0 0 1390653125

15:32

25-Янв-14

Хентай, порно и эротические мультфильмы ·· Crimson Girls: Chikan Shihai / Девушка Детектив: Похотливые преступники (Kimura Hiroshi, Rabbit Gate) (ep.1) [cen] [2012 г. Chikan, Oral sex, Rape, Big tits, Gangbang, Toys. DVDRip] [jap / chn / eng / rus][576p] Galfimbul 264782792253 MB 0 0 1356335820

10:57

24-Дек-12

Хентай, порно и эротические мультфильмы ·· Crimson Girls: Chikan Shihai / Девушка Детектив: Похотливые преступники (Spermation) (ep.1) [cen] [2012 г., Oral sex, Gangbang, Rape, Big tits, DVDRip] [jap/rus] Leito57 263909243252 MB 0 0 1338794220

10:17

4-Июн-12

bot

Топик был перенесен в форум Хентай | С цензурой

Перенес LinGr

Хотите добавить комментарий к записи скачать торрент Crimson Girls: Chikan Shihai Девушка-детектив: Похотливые преступники

!Обратная связь