Скачать порно через торрент Hump Bang! Перепих с грудастой! UnionPeer.org бесплатно онлайн HD качество

Скачать новое порно 2015, 2014 новинки через торрент UnionPeer.org

Порно торрент бесплатно ЮнионПир.орг

Если у вас наблюдаются проблемы со скриншотами, переходом по ссылками, скачиванием торрентов - проблемы в блокировщике рекламы AdBlock. #хорошегоДня!


Статистика раздачи
Размер:  2.88 GB   |    Зарегистрирован:  3 года 11 месяцев   |    .torrent скачан:  144 раза   |   
Раздают:  1  
   
Загрузка...
 
Автор Сообщение

LinGr

avatar LinGr


ハンプバング! | Hump Bang! | Перепих с грудастой!
Год выпуска: 2012
Страна: Япония
Жанр: anal, comedy, fellatio, masturbation, oral sex, school girls, sex
Продолжительность: >2 эп. по 25 мин.
Субтитры: Отсутствуют
Цензура: Присутствует
Студия: Pashmina
Описание:
Kouji and Hiro are exploring their sexual lives, not with ease, but with gradual acceptance of each other's tastes. Kouji acts as the dominant master and Hiro seems to be the willing slave. Will this setup work for these two?
Информационные ссылки: AniDB || MAL || World Art || ХентайМаг
Исходник: DVD-5
Видео: MPEG2 | NTSC | 16x9 | 720x480 | 8000 Kbps
Аудио JAP: AC-3 | 48000Hz | 128 Kbps | 2ch

Список эпизодов:
01. No! Don`t Cum Inside, I`ll Get Pregnant!!
02. Please Pour a Lot of Cum Inside the Lewd and Naughty Me...!!

General
Complete name : L:\VIDEO_TS\VTS_01_1.VOB
Format : MPEG-PS
File size : 1 024 MiB
Duration : 22mn 3s
Overall bit rate mode : Variable
Overall bit rate : 6 486 Kbps
Writing library : encoded by TMPGEnc 4.0 XPress Version. 4.7.4.299

Video
ID : 224 (0xE0)
Format : MPEG Video
Format version : Version 2
Format profile : Main@Main
Format settings, BVOP : Yes
Format settings, Matrix : Custom
Format settings, GOP : M=3, N=16
Duration : 22mn 3s
Bit rate mode : Variable
Bit rate : 6 229 Kbps
Maximum bit rate : 8 000 Kbps
Width : 720 pixels
Height : 480 pixels
Display aspect ratio : 16:9
Frame rate : 29.970 fps
Standard : NTSC
Color space : YUV
Chroma subsampling : 4:2:0
Bit depth : 8 bits
Scan type : Interlaced
Scan order : Top Field First
Compression mode : Lossy
Bits/(Pixel*Frame) : 0.601
Stream size : 983 MiB (96%)
Writing library : TMPGEnc XPress 4.7.4.299
Color primaries : SMPTE 170M
Transfer characteristics : SMPTE 170M
Matrix coefficients : SMPTE 170M

Audio
ID : 189 (0xBD)-128 (0x80)
Format : AC-3
Format/Info : Audio Coding 3
Mode extension : CM (complete main)
Muxing mode : DVD-Video
Duration : 22mn 3s
Bit rate mode : Constant
Bit rate : 128 Kbps
Channel(s) : 2 channels
Channel positions : Front: L R
Sampling rate : 48.0 KHz
Bit depth : 16 bits
Compression mode : Lossy
Stream size : 20.2 MiB (2%)





Исходник: DVD-5
Видео: MPEG2 | NTSC | 16x9 | 720x480 | 8000 Kbps
Аудио JAP: AC-3 | 48000Hz | 128 Kbps | 2ch

General
Complete name : L:\VIDEO_TS\VTS_01_1.VOB
Format : MPEG-PS
File size : 1 024 MiB
Duration : 21mn 45s
Overall bit rate mode : Variable
Overall bit rate : 6 577 Kbps
Writing library : encoded by TMPGEnc 4.0 XPress Version. 4.7.4.299

Video
ID : 224 (0xE0)
Format : MPEG Video
Format version : Version 2
Format profile : Main@Main
Format settings, BVOP : Yes
Format settings, Matrix : Custom
Format settings, GOP : M=3, N=16
Duration : 21mn 45s
Bit rate mode : Variable
Bit rate : 6 319 Kbps
Maximum bit rate : 8 000 Kbps
Width : 720 pixels
Height : 480 pixels
Display aspect ratio : 16:9
Frame rate : 29.970 fps
Standard : NTSC
Color space : YUV
Chroma subsampling : 4:2:0
Bit depth : 8 bits
Scan type : Interlaced
Scan order : Top Field First
Compression mode : Lossy
Bits/(Pixel*Frame) : 0.610
Stream size : 984 MiB (96%)
Writing library : TMPGEnc XPress 4.7.4.299
Color primaries : SMPTE 170M
Transfer characteristics : SMPTE 170M
Matrix coefficients : SMPTE 170M

Audio
ID : 189 (0xBD)-128 (0x80)
Format : AC-3
Format/Info : Audio Coding 3
Mode extension : CM (complete main)
Muxing mode : DVD-Video
Duration : 21mn 45s
Bit rate mode : Constant
Bit rate : 128 Kbps
Channel(s) : 2 channels
Channel positions : Front: L R
Sampling rate : 48.0 KHz
Bit depth : 16 bits
Compression mode : Lossy
Stream size : 19.9 MiB (2%)


Трекер:  [ 18-Авг-2013 14:45 ]

  

Скачать .torrent

Размер .torrent файла 15 KB


Размер: 2.88 GB
Хэш (hash) релиза: 2ee816689b2edce1af6e53d2dce9bab78143005b

bot

Топик был перенесен в форум Хентай | С цензурой

Перенес LinGr

Хотите добавить комментарий к записи скачать торрент Hump Bang! Перепих с грудастой!

!Обратная связь