Скачать порно через торрент Shocking Pink! Шокирующе розовый! UnionPeer.org бесплатно онлайн HD качество

Скачать новое порно 2015, 2014 новинки через торрент UnionPeer.org

Порно торрент бесплатно ЮнионПир.орг

Если у вас наблюдаются проблемы со скриншотами, переходом по ссылками, скачиванием торрентов - проблемы в блокировщике рекламы AdBlock. #хорошегоДня!


Статистика раздачи
Размер:  2.75 GB   |    Зарегистрирован:  4 года   |    .torrent скачан:  138 раз   |   
Раздают:  1  
   
Загрузка...
 
Автор Сообщение

LinGr

avatar LinGr


ショッキングピンク! | Shocking Pink!
Шокирующе розовый!

Год выпуска: 2011
Страна: Япония
Жанр: big tits, group, harem, martial arts, oral, straight, virgins
Продолжительность: >2 эп. по 15 мин.
Субтитры: Отсутствуют
Цензура: Присутствует
Режиссёр: Fujimoto Yoshitaka
Студия: Mary Jane | Studio Eromatick
Описание:
In order to pay-off his father's debts, Morokuzu Takaaki passes each day fully absorbed in work. One day, he is visited by a beauty who calls herself Ryuubi Gentoku. With her are two other equally beautiful girls, Kan'u Unchou and Chouhi Ekitoku.

Ryuubi believes that Takaaki is the incarnation of the legendary Shokatsu Koumei (the two names have only one differing kanji). This is why Ryuubi is insistent on making Takaaki her strategist, and she will go to any lengths to have her way.
Информационные ссылки: AniDB || MAL || World Art || ХентайМаг
Исходник: DVD-5
Видео: MPEG2 | NTSC | 16x9 | 720x480 | 8000 Kbps
Аудио JAP: AC-3 | 48000Hz | 192 Kbps | 2ch

Список эпизодов:
01. Peach Garden`s Vow
02. Chouhan`s Battle

General
Complete name : L:\VIDEO_TS\VTS_01_1.VOB
Format : MPEG-PS
File size : 1 024 MiB
Duration : 16mn 57s
Overall bit rate : 8 441 Kbps

Video
ID : 224 (0xE0)
Format : MPEG Video
Format version : Version 2
Format profile : Main@Main
Format settings, BVOP : Yes
Format settings, Matrix : Custom
Format settings, GOP : M=3, N=15
Duration : 16mn 57s
Bit rate : 8 081 Kbps
Maximum bit rate : 8 000 Kbps
Width : 720 pixels
Height : 480 pixels
Display aspect ratio : 16:9
Frame rate : 29.970 fps
Standard : NTSC
Color space : YUV
Chroma subsampling : 4:2:0
Bit depth : 8 bits
Scan type : Interlaced
Scan order : Top Field First
Compression mode : Lossy
Bits/(Pixel*Frame) : 0.780
Stream size : 980 MiB (96%)

Audio
ID : 189 (0xBD)-128 (0x80)
Format : AC-3
Format/Info : Audio Coding 3
Mode extension : CM (complete main)
Muxing mode : DVD-Video
Duration : 16mn 57s
Bit rate mode : Constant
Bit rate : 192 Kbps
Channel(s) : 2 channels
Channel positions : Front: L R
Sampling rate : 48.0 KHz
Bit depth : 16 bits
Compression mode : Lossy
Delay relative to video : -66ms
Stream size : 23.3 MiB (2%)





Исходник: DVD-5
Видео: MPEG2 | NTSC | 16x9 | 720x480 | 8400 Kbps
Аудио JAP: AC-3 | 48000Hz | 192 Kbps | 2ch

General
Complete name : L:\VIDEO_TS\VTS_01_1.VOB
Format : MPEG-PS
File size : 1 024 MiB
Duration : 16mn 11s
Overall bit rate : 8 838 Kbps

Video
ID : 224 (0xE0)
Format : MPEG Video
Format version : Version 2
Format profile : Main@Main
Format settings, BVOP : Yes
Format settings, Matrix : Custom
Format settings, GOP : M=3, N=15
Duration : 16mn 11s
Bit rate : 8 400 Kbps
Width : 720 pixels
Height : 480 pixels
Display aspect ratio : 16:9
Frame rate : 29.970 fps
Standard : NTSC
Color space : YUV
Chroma subsampling : 4:2:0
Bit depth : 8 bits
Scan type : Interlaced
Scan order : Top Field First
Compression mode : Lossy
Bits/(Pixel*Frame) : 0.811
Stream size : 981 MiB (96%)

Audio
ID : 189 (0xBD)-128 (0x80)
Format : AC-3
Format/Info : Audio Coding 3
Mode extension : CM (complete main)
Muxing mode : DVD-Video
Duration : 16mn 11s
Bit rate mode : Constant
Bit rate : 192 Kbps
Channel(s) : 2 channels
Channel positions : Front: L R
Sampling rate : 48.0 KHz
Bit depth : 16 bits
Compression mode : Lossy
Delay relative to video : -66ms
Stream size : 22.2 MiB (2%)


Трекер:  [ 18-Авг-2013 14:45 ]

  

Скачать .torrent

Размер .torrent файла 14 KB


Размер: 2.75 GB
Хэш (hash) релиза: 745a758012b4d6b22b2b04dc0244bd8594a6f5da

bot

Топик был перенесен в форум Хентай | С цензурой

Перенес LinGr

Хотите добавить комментарий к записи скачать торрент Shocking Pink! Шокирующе розовый!

!Обратная связь