Скачать порно через торрент D-spray Лечебный спрей UnionPeer.org бесплатно онлайн HD качество

Скачать новое порно 2015, 2014 новинки через торрент UnionPeer.org

Порно торрент бесплатно ЮнионПир.орг

Если у вас наблюдаются проблемы со скриншотами, переходом по ссылками, скачиванием торрентов - проблемы в блокировщике рекламы AdBlock. #хорошегоДня!


Статистика раздачи
Размер:  2.4 GB   |    Зарегистрирован:  4 года 2 месяца   |    .torrent скачан:  121 раз   |   
Раздают:  1  
   
Загрузка...
 
Автор Сообщение

LinGr

avatar LinGr


D-spray | Лечебный спрей
Год выпуска: 2013
Страна: Япония
Жанр: anal sex, big tits, oral sex, stockings, straight
Продолжительность: >1 эп. 30 мин.
Субтитры: Отсутствуют
Цензура: Присутствует
Студия: Schoolzone
Описание:
Saionji is a lazy employee who always gets scolded by his boss. One day, he was asked to test the effectiveness of an aphrodisiac on the female employees of his company.
Информационные ссылки: AniDB || MAL || World Art || ХентайМаг
Исходник: DVD-5
Видео: MPEG2 | NTSC | 16x9 | 720x480 | 9800 Kbps
Аудио JAP: AC-3 | 48000Hz | 384 Kbps | 2ch


01. New Drug Testing! Office Ladies High on Aphrodisiacs - Getting the Female Boss Laid
General
Complete name : L:\VIDEO_TS\VTS_01_1.VOB
Format : MPEG-PS
File size : 1 024 MiB
Duration : 17mn 7s
Overall bit rate mode : Variable
Overall bit rate : 8 359 Kbps

Video
ID : 224 (0xE0)
Format : MPEG Video
Format version : Version 2
Format profile : Main@Main
Format settings, BVOP : Yes
Format settings, Matrix : Custom
Duration : 17mn 7s
Bit rate mode : Variable
Bit rate : 7 808 Kbps
Maximum bit rate : 9 800 Kbps
Width : 720 pixels
Height : 480 pixels
Display aspect ratio : 16:9
Frame rate : 29.970 fps
Standard : NTSC
Color space : YUV
Chroma subsampling : 4:2:0
Bit depth : 8 bits
Scan type : Interlaced
Scan order : Top Field First
Compression mode : Lossy
Bits/(Pixel*Frame) : 0.754
Stream size : 957 MiB (93%)

Audio
ID : 189 (0xBD)-128 (0x80)
Format : AC-3
Format/Info : Audio Coding 3
Mode extension : CM (complete main)
Muxing mode : DVD-Video
Duration : 17mn 7s
Bit rate mode : Constant
Bit rate : 384 Kbps
Channel(s) : 2 channels
Channel positions : Front: L R
Sampling rate : 48.0 KHz
Bit depth : 16 bits
Compression mode : Lossy
Stream size : 47.0 MiB (5%)


Трекер:  [ 18-Авг-2013 14:45 ]

  

Скачать .torrent

Размер .torrent файла 12 KB


Размер: 2.4 GB
Хэш (hash) релиза: 695554cac6928c15d29e1b1e9f8e81de9091b354

Торренты, похожие на D-spray Лечебный спрей скачать торрент

Форум Название Автор Размер S L Добавлен
Хентай | С цензурой ·· D-spray / Лечебный спрей (Hayate, Schoolzone) (ep.1) [cen] [2013 г. Office Lady, Big tits, Oral sex, Straight, Stockings, DVDRip] [jap / eng / rus] LinGr 347927030332 MB 1 1 1381093697

00:08

7-Окт-13

Хентай | С цензурой ·· D-spray / Лечебный спрей (ep.1) [cen] [2013 г., Big tits, Oral sex, Straight, Anal sex, Stockings, DVDRip] [jap] spider91 347871106332 MB 2 0 1365324896

11:54

7-Апр-13

bot

Топик был перенесен в форум Хентай | С цензурой

Перенес LinGr

Хотите добавить комментарий к записи скачать торрент D-spray Лечебный спрей

!Обратная связь