Скачать через торрент музыку Massive Attack - Risingson бесплатно без регистрации torrent

Если у вас наблюдаются проблемы со скриншотами, переходом по ссылками, скачиванием торрентов - проблемы в блокировщике рекламы AdBlock. #хорошегоДня!


Статистика раздачи
Размер:  124 MB   |    Зарегистрирован:  5 лет 10 месяцев   |    .torrent скачан:  35 раз   |   
Раздают:  1  
   
Загрузка...
 
Автор Сообщение

Galfimbul

avatar Galfimbul



Massive Attack - Risingson (Directed By Walter Stern)
(Bassnectar Lab Remix)


Страна: Ganjubas
Жанр: Dubstep
Продолжительность: 9mn 2s 952ms
Год выпуска: 2010

Описание: Massive Attack - Risingson (Bassnectar Lab Remix)

Источник: собственный рип
Massive Attack - Risingson (Directed By Walter Stern) (Bassnectar Lab Remix) 2010

Format : MPEG-PS
File size : 420 MiB
Duration : 9mn 2s
Overall bit rate : 6 486 Kbps

Video
ID : 224 (0xE0)
Format : MPEG Video
Format version : Version 2
Format profile : Main@Main
Format settings, BVOP : Yes
Format settings, Matrix : Default
Format settings, GOP : M=3, N=15
Duration : 9mn 2s
Bit rate mode : Variable
Bit rate : 5 973 Kbps
Nominal bit rate : 9 500 Kbps
Width : 720 pixels
Height : 480 pixels
Display aspect ratio : 4:3
Frame rate : 29.970 fps
Standard : NTSC
Color space : YUV
Chroma subsampling : 4:2:0
Bit depth : 8 bits
Scan type : Interlaced
Scan order : Bottom Field First
Bits/(Pixel*Frame) : 0.577
Stream size : 387 MiB (92%)

Audio
ID : 192 (0xC0)
Format : MPEG Audio
Format version : Version 1
Format profile : Layer 2
Duration : 9mn 2s
Bit rate mode : Constant
Bit rate : 384 Kbps
Channel(s) : 2 channels
Sampling rate : 48.0 KHz
Stream size : 24.8 MiB (6%)
Качество: DVDRip-AVC
Контейнер: MKV
Видео кодек: x264
Аудио кодек: MP3
Видео: AVC at 1 600 Kbps 720 x 576 (1.333) at 23.976 fps
Аудио: MP3 Audio at CBR 320 Kbps 2 channels, 48.0 KHz
Format : Matroska
File size : 124 MiB
Duration : 9mn 2s
Overall bit rate : 1 920 Kbps
Encoded date : UTC 2010-11-04 13:19:41
Writing application : mkvmerge v4.2.0 ('No Talking') сборка от Jul 28 2010 18:38:23
Writing library : libebml v1.0.0 + libmatroska v1.0.0

Video
ID : 1
Format : AVC
Format/Info : Advanced Video Codec
Format profile : High@L3.0
Format settings, CABAC : Yes
Format settings, ReFrames : 5 frames
Format settings, GOP : M=1, N=15
Muxing mode : Container profile=Unknown@3.0
Codec ID : V_MPEG4/ISO/AVC
Duration : 9mn 2s
Bit rate : 1 600 Kbps
Width : 720 pixels
Height : 576 pixels
Display aspect ratio : 4:3
Original display aspect ratio : 5:4
Frame rate : 23.976 fps
Standard : PAL
Color space : YUV
Chroma subsampling : 4:2:0
Bit depth : 8 bits
Scan type : Progressive
Bits/(Pixel*Frame) : 0.161
Stream size : 101 MiB (81%)
Writing library : x264 core 92 r1510 33d382a
Encoding settings : cabac=1 / ref=5 / deblock=1:-1:-1 / analyse=0x3:0x133 / me=umh / subme=7 / psy=1 / psy_rd=1.00:0.00 / mixed_ref=1 / me_range=16 / chroma_me=1 / trellis=2 / 8x8dct=1 / cqm=0 / deadzone=21,11 / fast_pskip=0 / chroma_qp_offset=-2 / threads=3 / sliced_threads=0 / nr=0 / decimate=1 / interlaced=0 / constrained_intra=0 / bframes=3 / b_pyramid=2 / b_adapt=2 / b_bias=0 / direct=1 / wpredb=1 / wpredp=2 / keyint=250 / keyint_min=25 / scenecut=40 / intra_refresh=0 / rc_lookahead=50 / rc=abr / mbtree=1 / bitrate=1600 / ratetol=1.0 / qcomp=0.60 / qpmin=10 / qpmax=51 / qpstep=4 / ip_ratio=1.40 / aq=1:1.00

Audio
ID : 2
Format : MPEG Audio
Format version : Version 1
Format profile : Layer 3
Codec ID : A_MPEG/L3
Codec ID/Hint : MP3
Duration : 9mn 2s
Bit rate mode : Constant
Bit rate : 320 Kbps
Channel(s) : 2 channels
Sampling rate : 48.0 KHz
Stream size : 20.7 MiB (17%)
Writing library : LAME3.98r
Encoding settings : -m s -V 4 -q 0 -lowpass 20.5


Трекер:  [ 25-Ноя-2011 23:38 ]

  

Скачать .torrent

Размер .torrent файла 20 KB


Размер: 124 MB
Хэш (hash) релиза: 0d7d950ccaaa969236615217e72b2aa8cfe5fac7

Еще никто не оставлял запись к записи скачать торрент Massive Attack - Risingson . Будь первым!

!Обратная связь