Скачать через торрент музыку Recoil - A Strange Hour бесплатно без регистрации torrent

Если у вас наблюдаются проблемы со скриншотами, переходом по ссылками, скачиванием торрентов - проблемы в блокировщике рекламы AdBlock. #хорошегоДня!


Статистика раздачи
Размер:  1.46 GB   |    Зарегистрирован:  5 лет 10 месяцев   |    .torrent скачан:  34 раза   |   
Раздают:  1  
   
Загрузка...
 
Автор Сообщение

Galfimbul

avatar Galfimbul


Recoil - A Strange Hour [Exclusive Signed Deluxe Limited Edition Box Set]

Страна: UK
Жанр: Synthpop, Ambient
Продолжительность: 01:15:44
Год выпуска: 2010

Описание: Рип DVD диска из Exclusive Signed Deluxe Limited Edition Box Set, содержащий видеопроекции композиций тура A Strange Hour.

Режиссер: Igor Dvorsky

Качество: DVDRip
Контейнер: AVI
Видео кодек: XviD
Аудио кодек: MP3
Видео: DivX, 720x480, 3:2, 23.98fps
Аудио: MP3, 256kbps, 48000Hz, 2Ch
General
Format : AVI
Format/Info : Audio Video Interleave
Format profile : OpenDML
File size : 1.46 GiB
Duration : 1h 15mn
Overall bit rate : 2 752 Kbps
Writing application : Lavf51.12.1

Video
ID : 0
Format : MPEG-4 Visual
Format profile : Simple@L1
Format settings, BVOP : No
Format settings, QPel : No
Format settings, GMC : No warppoints
Format settings, Matrix : Default (H.263)
Codec ID : DX50
Codec ID/Hint : DivX 5
Duration : 1h 15mn
Bit rate : 2 481 Kbps
Width : 720 pixels
Height : 480 pixels
Display aspect ratio : 3:2
Frame rate : 23.976 fps
Standard : NTSC
Resolution : 8 bits
Colorimetry : 4:2:0
Scan type : Progressive
Bits/(Pixel*Frame) : 0.299
Stream size : 1.31 GiB (90%)
Writing library : Lavc51.40.4

Audio
ID : 1
Format : MPEG Audio
Format version : Version 1
Format profile : Layer 3
Format_Settings_Mode : Joint stereo
Codec ID : 55
Codec ID/Hint : MP3
Duration : 1h 15mn
Bit rate mode : Constant
Bit rate : 256 Kbps
Channel(s) : 2 channels
Sampling rate : 48.0 KHz
Stream size : 139 MiB (9%)
Alignment : Aligned on interleaves
Interleave, duration : 24 ms (0.58 video frame)
Interleave, preload duration : 24 ms
Writing library : LAME3.97


Трекер:  [ 25-Ноя-2011 23:49 ]

  

Скачать .torrent

Размер .torrent файла 15 KB


Размер: 1.46 GB
Хэш (hash) релиза: ec51442cb3f1eb7a6906688f08ff537fe68d09dd

Торренты, похожие на Recoil - A Strange Hour скачать торрент

Форум Название Автор Размер S L Добавлен
Электронная музыка ·· Recoil ‎- A Strange Hour In Budapest {Concert} [2012, Electronic, Downtempo, Trip Hop, Experimental, BDRip 720p] Galfimbul 52506336804.89 GB 0 0 1348469700

09:55

24-Сен-12

Электронная музыка ·· Recoil ‎- A Strange Hour In Budapest [2012, Electronic, Downtempo, Trip Hop, Experimental, BDRip 1080p] Galfimbul 1649089502715.36 GB 0 0 1348469700

09:55

24-Сен-12

Еще никто не оставлял запись к записи скачать торрент Recoil - A Strange Hour . Будь первым!

!Обратная связь