Скачать через торрент музыку Венгеров & Федоров VENGEROV & FEDOROFF - Простоквашино бесплатно без регистрации torrent

Если у вас наблюдаются проблемы со скриншотами, переходом по ссылками, скачиванием торрентов - проблемы в блокировщике рекламы AdBlock. #хорошегоДня!


Статистика раздачи
Размер:  93 MB   |    Зарегистрирован:  5 лет 10 месяцев   |    .torrent скачан:  33 раза   |   
Раздают:  1  
   
Загрузка...
 
Автор Сообщение

Galfimbul

avatar Galfimbul


Венгеров & Федоров / VENGEROV & FEDOROFF - Простоквашино

Год выпуска: 2005
Жанр: Electronic
Продолжительность: 00:02:44

Страна: Россия

Качество: SATRip
Формат: MPEG-PS
Видео кодек: MPEG2
Аудио кодек: AC3
Видео: MPEG2 Video 720x576 (4:3) 25.00fps 4380kbps [Video]
Аудио: MPEG Audio 48000Hz stereo 256kbps [Audio]
General
Complete name : K:\РАЗДАЧИ\OST\Венгеров & Федоров (VENGEROV & FEDOROFF)- Простоквашино.VOB
Format : MPEG-PS
File size : 93.2 MiB
Duration : 2mn 44s
Overall bit rate : 4 768 Kbps

Video
ID : 224 (0xE0)
Format : MPEG Video
Format version : Version 2
Format profile : Main@Main
Format settings, Matrix : Default
Duration : 2mn 44s
Bit rate mode : Constant
Bit rate : 4 323 Kbps
Nominal bit rate : 4 380 Kbps
Width : 720 pixels
Height : 576 pixels
Display aspect ratio : 4:3
Frame rate : 25.000 fps
Standard : PAL
Colorimetry : 4:2:0
Scan type : Interlaced
Scan order : Top Field First
Bits/(Pixel*Frame) : 0.417
Stream size : 84.5 MiB (91%)

Audio
ID : 192 (0xC0)
Format : MPEG Audio
Format version : Version 1
Format profile : Layer 2
Duration : 2mn 44s
Bit rate mode : Constant
Bit rate : 256 Kbps
Channel(s) : 2 channels
Sampling rate : 48.0 KHz
Resolution : 16 bits
Video delay : -392ms
Stream size : 5.01 MiB (5%)

Menu


Трекер:  [ 25-Ноя-2011 23:55 ]

  

Скачать .torrent

Размер .torrent файла 15 KB


Размер: 93 MB
Хэш (hash) релиза: fb413e919a98806d8240e1623e3c8c26e35bb2e8

Еще никто не оставлял запись к записи скачать торрент Венгеров & Федоров VENGEROV & FEDOROFF - Простоквашино . Будь первым!

!Обратная связь