Скачать через торрент музыку AGONOIZE - Live in Moscow бесплатно без регистрации torrent

Если у вас наблюдаются проблемы со скриншотами, переходом по ссылками, скачиванием торрентов - проблемы в блокировщике рекламы AdBlock. #хорошегоДня!


Статистика раздачи
Размер:  1.49 GB   |    Зарегистрирован:  5 лет 10 месяцев   |    .torrent скачан:  26 раз   |   
Раздают:  1  
   
Загрузка...
 
Автор Сообщение

Galfimbul

avatar Galfimbul


Live at XO club, Moscow (18.09.2010)
Страна: Germany
Жанр: Dark Electro
Продолжительность: 1:37:05
Год выпуска: 2010
Камера: [MXN]

Описание: AGONOIZE - Live in Moscow (RU) XO club (18.09.2010)
1. intro / earpain
2. Blutverlust
3. Alarmstufe Rot
4. S.F.P.A.
5. Vollrauchfetischist
6. Fight For Your Right (Beastie Boys cover)
7. D.M.K. (Upgraded)
8. I Am
9. In Deinem Grab
10. A Cut Inside My Soul
11. Sacrifice
12. Gottlos
13. Staatsfeind
14. Femme Fatale
15. Bis Das Blut Gefriert
--------------------------------
16. Knick Knack
17. Glaubenskrieger
--------------------------------
18. Blut, Sex, Tod
19. Paranoid Destruction
--------------------------------
20. Koprolalie
21. I Was Made For Loving You (Kiss cover)


General
Complete name : AGONOIZE - Live in Moscow (RU) XO club (18.09.2010) [MXN] ~Full Length~.avi
Format : AVI
Format/Info : Audio Video Interleave
Format profile : OpenDML
File size : 1.49 GiB
Duration : 1h 37mn
Overall bit rate : 2 199 Kbps
Writing application : MEncoder Sherpya-SVN-r30075-4.2.5
Writing library : MPlayer

Video
ID : 0
Format : MPEG-4 Visual
Format profile : Simple@L3
Format settings, BVOP : No
Format settings, QPel : No
Format settings, GMC : No warppoints
Format settings, Matrix : Default (H.263)
Codec ID : XVID
Codec ID/Hint : XviD
Duration : 1h 37mn
Bit rate : 2 000 Kbps
Width : 720 pixels
Height : 432 pixels
Display aspect ratio : 1.667
Frame rate : 25.000 fps
Color space : YUV
Chroma subsampling : 4:2:0
Bit depth : 8 bits
Scan type : Progressive
Bits/(Pixel*Frame) : 0.257
Stream size : 1.36 GiB (91%)
Writing library : XviD 1.2.1 (UTC 2008-12-04)

Audio
ID : 1
Format : MPEG Audio
Format version : Version 1
Format profile : Layer 3
Mode : Joint stereo
Mode extension : MS Stereo
Codec ID : 55
Codec ID/Hint : MP3
Duration : 47s 491ms
Bit rate mode : Variable
Bit rate : 185 Kbps
Channel(s) : 2 channels
Sampling rate : 44.1 KHz
Stream size : 1.07 MiB (0%)
Alignment : Aligned on interleaves
Interleave, duration : 3204 ms (80.10 video frames)
Interleave, preload duration : 616 ms
Writing library : LAME3.98.2ЄЄЄЄЄЄЄЄЄЄ
Качество: CAMRip
Контейнер: AVI
Видео кодек: XviD
Аудио кодек: MP3
Видео: Xvid 720x432 25.00fps 2000kbps
Аудио: MPEG Audio Layer 3 44100Hz stereo 185kbps

Трекер:  [ 25-Ноя-2011 23:53 ]

  

Скачать .torrent

Размер .torrent файла 15 KB


Размер: 1.49 GB
Хэш (hash) релиза: 0a483a03a45804539ee11dd564051ab52e792fd8

Еще никто не оставлял запись к записи скачать торрент AGONOIZE - Live in Moscow . Будь первым!

!Обратная связь