Скачать через торрент музыку Duck Sauce - Barbra Streisand бесплатно без регистрации torrent

Если у вас наблюдаются проблемы со скриншотами, переходом по ссылками, скачиванием торрентов - проблемы в блокировщике рекламы AdBlock. #хорошегоДня!


Статистика раздачи
Размер:  41 MB   |    Зарегистрирован:  5 лет 10 месяцев   |    .torrent скачан:  36 раз   |   
Раздают:  1  
   
Загрузка...
 
Автор Сообщение

Galfimbul

avatar Galfimbul


Duck Sauce - Barbra Streisand

Страна: USA
Жанр: Pop
Продолжительность: 00:03:15
Год выпуска: 2010

Качество: DVB PAL
Контейнер: MKV
Видео: Разрешение 688х400(1.72:1) Кадров в сек/: 25 Кодек: x264 Битрейт: 1519 Kbit
Аудио: Количество каналов 2 Частота Дискретизации : 48000 Hz Кодек: MP2 Битрейт: 192 Kbit
duck_sauce-barbra_streisand-convert-x264-2010-grmv.mkv
General
Format : Matroska
File size : 40.7 MiB
Duration : 3mn 15s
Overall bit rate : 1 745 Kbps
Encoded date : UTC 2010-10-30 01:00:58
Writing application : mkvmerge v4.3.0 ('Escape from the Island') gebaut am Sep 5 2010 10:30:51
Writing library : libebml v1.0.0 + libmatroska v1.0.0
Video #1
ID : 1
Format : AVC
Format/Info : Advanced Video Codec
Format profile : Main@L3.0
Format settings, CABAC : Yes
Format settings, ReFrames : 5 frames
Muxing mode : Header stripping
Codec ID : V_MPEG4/ISO/AVC
Duration : 3mn 15s
Bit rate : 1 519 Kbps
Width : 688 pixels
Height : 400 pixels
Display aspect ratio : 16:9
Frame rate : 25.000 fps
Color space : YUV
Chroma subsampling : 4:2:0
Bit depth : 8 bits
Scan type : Progressive
Bits/(Pixel*Frame) : 0.221
Stream size : 35.5 MiB (87%)
Language : English
Audio #2
ID : 2
Format : MPEG Audio
Format version : Version 1
Format profile : Layer 2
Muxing mode : Header stripping
Codec ID : A_MPEG/L2
Codec ID/Hint : MP2
Duration : 3mn 15s
Bit rate mode : Constant
Bit rate : 192 Kbps
Channel(s) : 2 channels
Sampling rate : 48.0 KHz
Compression mode : Lossy
Stream size : 4.48 MiB (11%)
Language : English


Трекер:  [ 25-Ноя-2011 23:56 ]

  

Скачать .torrent

Размер .torrent файла 13 KB


Размер: 41 MB
Хэш (hash) релиза: 375987ca595e38af6277175a3b46356bfbe43810

Торренты, похожие на Duck Sauce - Barbra Streisand скачать торрент

Форум Название Автор Размер S L Добавлен
Электронная музыка (lossless) ·· (House) Duck Sauce - Barbra Streisand (UK - single) - CD-MS (CDGLOBE1472) - 2010, FLAC (tracks+.cue) lossless Galfimbul 134544615128 MB 0 0 1329196307

08:11

14-Фев-12

Электронная музыка (video) ·· Duck Sauce - Barbra Streisand [2010, House, IPTVRip] L 10267751698 MB 0 0 1294845474

18:17

12-Янв-11

Электронная музыка (lossless) ·· (Drum & Bass / House) Duck Sauce - Barbra Streisand [Single CD] - 2010, FLAC (image+.cue) lossless AqvaGen 7110820168 MB 0 0 1294242346

18:45

5-Янв-11

Еще никто не оставлял запись к записи скачать торрент Duck Sauce - Barbra Streisand . Будь первым!

!Обратная связь