Скачать через торрент музыку Mera Luna 2006 бесплатно без регистрации torrent

Если у вас наблюдаются проблемы со скриншотами, переходом по ссылками, скачиванием торрентов - проблемы в блокировщике рекламы AdBlock. #хорошегоДня!


Статистика раздачи
Размер:  700 MB   |    Зарегистрирован:  5 лет 10 месяцев   |    .torrent скачан:  45 раз   |   
Раздают:  1  
   
Загрузка...
 
Автор Сообщение

Galfimbul

avatar Galfimbul


(TS)[Synthpop, Industrial, Gothic Metal, Pagan]M'era Luna 2006 [Blutengel; Die Krupps, The Birthday Massacre, In Extremo, Frontline Assembly,Within Temptation, Nitzer Ebb]

Год выпуска: 2006
Продолжительность: 1h37

Описание: M’era Luna Festival — музыкальный дарквэйв фестиваль, который ежегодно проводится в Хильдесхайме, Германия, каждые вторые выходные дни августа. M’era Luna — один из крупнейших событий Германии, его численность составляет 20,000 — 25,000 зрителей

сет лист:
Blutengel - Children of the night
Die Krupps - Crossfire
The Birthday Massacre - Blue
Apoptygma Berzerk - Unicorn
In Extremo - Raue see
Frontline Assembly - Mindphaser
Within Temptation - Stand my Ground
Nitzer - Ebb Getting Closer

Доп. информация: похоже в этом видео нет звука в правом динамике.

Формат: AVI
Видео кодек: XviD
Аудио кодек: MP3
Видео: Width : 640 pixels Height : 368 pix
Аудио: Bit rate : 79 Kbps
Тех. данные файла
General
Complete name : F:\torrent\clip\Mera_Luna_Festival_2006_[http://рутраскер].avi
Format : AVI
Format/Info : Audio Video Interleave
File size : 700 MiB
Duration : 1h 37mn
Overall bit rate : 1002 Kbps
Writing application : VirtualDubMod 1.5.4.1 (build 2178/release)
Writing library : VirtualDubMod build 2178/release

Video
Format : MPEG-4 Visual
Format profile : Streaming Video@L1
Format settings, BVOP : Yes
Format settings, QPel : No
Format settings, GMC : No warppoints
Format settings, Matrix : Custom
Codec ID : XVID
Codec ID/Hint : XviD
Duration : 1h 37mn
Bit rate : 908 Kbps
Width : 640 pixels
Height : 368 pixels
Display aspect ratio : 16/9
Frame rate : 25.000 fps
Resolution : 8 bits
Colorimetry : 4:2:0
Scan type : Progressive
Bits/(Pixel*Frame) : 0.154
Stream size : 634 MiB (91%)
Writing library : XviD 1.2.0.dev47 (UTC 2006-11-01)

Audio
Format : MPEG Audio
Format version : Version 1
Format profile : Layer 3
Codec ID : 55
Codec ID/Hint : MP3
Duration : 1h 37mn
Bit rate mode : Variable
Bit rate : 81.5 Kbps
Minimum bit rate : 128 Kbps
Channel(s) : 2 channels
Sampling rate : 48.0 KHz
Resolution : 16 bits
Stream size : 56.9 MiB (8%)
Alignment : Aligned on interleaves
Interleave, duration : 24 ms (0.60 video frame)
Interleave, preload duration : 226 ms
Writing library : LAME3.97
Encoding settings : ABR


Трекер:  [ 26-Ноя-2011 00:00 ]

  

Скачать .torrent

Размер .torrent файла 14 KB


Размер: 700 MB
Хэш (hash) релиза: 7491f8eeef8bf93a090eeb5cf3b50fad55ab7785

Торренты, похожие на Mera Luna 2006 скачать торрент

Форум Название Автор Размер S L Добавлен
Электронная музыка (mp3) ·· (Darkwave / Industrial / Symphonic Rock / Dark Electro / Goth Rock / EBM / Synth) VA - Mera (M'era) Luna Festival 2006-2012, MP3 (tracks), 320 kbps L 23853142502.22 GB 0 0 1361722557

19:15

24-Фев-13

Еще никто не оставлял запись к записи скачать торрент Mera Luna 2006 . Будь первым!

!Обратная связь