Скачать через торрент музыку Depeche Mode - Short Films from Remastered DVD бесплатно без регистрации torrent

Если у вас наблюдаются проблемы со скриншотами, переходом по ссылками, скачиванием торрентов - проблемы в блокировщике рекламы AdBlock. #хорошегоДня!


Статистика раздачи
Размер:  3.52 GB   |    Зарегистрирован:  5 лет 10 месяцев   |    .torrent скачан:  55 раз   |   
Раздают:  1  
   
Загрузка...
 
Автор Сообщение

Galfimbul

avatar Galfimbul


Depeche Mode Short Films from Remastered DVD, DVDRip

Год выпуска: 2006-07
Страна: UK
Жанр: Electronic, Documentary

Описание: Рипы документальных фильмов с ремастерированной дискографии группы Депеш Мод с участием Винса Кларка, Мартина Гора, Дэйва Гэана, Алана Уайлдера, Энди Флетчера, Дэниеля Миллера, Антона Корбайна, Флада и пр.

Информацию об этих релизах можно посмотреть здесь.

Перевод: русские субтитры.
General
Complete name : Short films from remasters\Depeche Mode 1981 - Speak & Spell - A Short Film.mkv
Format : Matroska
File size : 206 MiB
Duration : 28mn 24s
Overall bit rate : 1 015 Kbps
Encoded date : UTC 2007-10-23 19:44:26
Writing application : mkvmerge v2.1.0 ('Another Place To Fall') built on Aug 19 2007 13:40:07
Writing library : libebml v0.7.7 + libmatroska v0.8.1
Video #1
Format : VP6.2
Codec ID : VP62
Codec ID/Hint : On2
Duration : 28mn 24s
Bit rate : 836 Kbps
Width : 704 pixels
Height : 400 pixels
Display aspect ratio : 16/9
Frame rate : 25.000 fps
Resolution : 24 bits
Bits/(Pixel*Frame) : 0.119
Audio #2
Format : MPEG Audio
Format version : Version 1
Format profile : Layer 3
Codec ID : A_MPEG/L3
Codec ID/Hint : MP3
Duration : 28mn 24s
Bit rate mode : Constant
Bit rate : 128 Kbps
Channel(s) : 2 channels
Sampling rate : 48.0 KHz
Resolution : 16 bits
Language : English
Text #3
Format : UTF-8
Codec ID : S_TEXT/UTF8
Codec ID/Info : UTF-8 Plain Text
Language : Russian
Text #4
Format : UTF-8
Codec ID : S_TEXT/UTF8
Codec ID/Info : UTF-8 Plain Text
Language : English


Качество: DVDRip
Формат: MKV
Видео кодек: VP62 704х400, 25 fps, 836 Kbps
Аудио кодек: Mpeg audio Layer3 48.0 kHz, Stereo, 128 Kbps
Продолжительность: 28:24
Субтитры: внутренние, отключаемые - англ, рус
General
Complete name : D:\Depeche Mode Short Films from Remasters DVDRip rus sub\Depeche Mode 1982 - ABF- A Short Film.avi
Format : AVI
Format/Info : Audio Video Interleave
File size : 279 MiB
Duration : 27mn 9s
Overall bit rate : 1 438 Kbps
Movie name : "The beginning of their so-called dark phase..."
Movie name/Url : Originally shared on demonoid.com
Encoded by : Maxxash
Video
Format : MPEG-4 Visual
Format settings, BVOP : Yes
Format settings, QPel : No
Format settings, GMC : No warppoints
Format settings, Matrix : Default
Codec ID : DX50
Codec ID/Hint : DivX 5
Duration : 27mn 9s
Bit rate : 1 300 Kbps
Width : 720 pixels
Height : 388 pixels
Display aspect ratio : 1.856
Frame rate : 25.000 fps
Resolution : 24 bits
Colorimetry : 4:2:0
Scan type : Progressive
Bits/(Pixel*Frame) : 0.186
Stream size : 253 MiB (90%)
Writing library : DivX 6.8.0 Converter 6.6
Audio
Format : MPEG Audio
Format version : Version 1
Format profile : Layer 3
Codec ID : 55
Codec ID/Hint : MP3
Duration : 27mn 9s
Bit rate mode : Constant
Bit rate : 128 Kbps
Channel(s) : 2 channels
Sampling rate : 48.0 KHz
Resolution : 16 bits
Stream size : 24.9 MiB (9%)
Alignment : Aligned on interleaves
Interleave, duration : 40 ms (1.00 video frame)
Interleave, preload duration : 504 ms
Writing library : LAME3.97


Качество: DVDRip
Формат: AVI
Видео кодек: DX50 720х388, 25 fps, 1300 Kbps
Аудио кодек: Mpeg audio Layer3 48.0 kHz, Stereo, 128 Kbps
Продолжительность: 27:09
Субтитры: внешние .srt - рус
General
Complete name : Depeche Mode Short Films from Remasters DVDRip rus sub\Depeche Mode 1983 - CTA - A Short Film.avi
Format : AVI
Format/Info : Audio Video Interleave
File size : 401 MiB
Duration : 38mn 56s
Overall bit rate : 1 439 Kbps
Movie name : "Teenagers growing up, bad government... and all that stuff."
Movie name/Url : Originally shared on demonoid.com
Encoded by : Maxxash
Video
Format : MPEG-4 Visual
Format settings, BVOP : Yes
Format settings, QPel : No
Format settings, GMC : No warppoints
Format settings, Matrix : Default
Codec ID : DX50
Codec ID/Hint : DivX 5
Duration : 38mn 56s
Bit rate : 1 301 Kbps
Width : 704 pixels
Height : 388 pixels
Display aspect ratio : 16/9
Frame rate : 25.000 fps
Resolution : 24 bits
Colorimetry : 4:2:0
Scan type : Progressive
Bits/(Pixel*Frame) : 0.191
Stream size : 362 MiB (90%)
Title : Video
Writing library : DivX 6.8.0 Converter 6.6
Audio
Format : MPEG Audio
Format version : Version 1
Format profile : Layer 3
Codec ID : 55
Codec ID/Hint : MP3
Duration : 38mn 56s
Bit rate mode : Constant
Bit rate : 128 Kbps
Channel(s) : 2 channels
Sampling rate : 48.0 KHz
Resolution : 16 bits
Stream size : 35.7 MiB (9%)
Alignment : Split accross interleaves
Interleave, duration : 40 ms (1.00 video frame)
Interleave, preload duration : 500 ms
Title : Audio
Writing library : LAME3.92


Качество: DVDRip
Формат: AVI
Видео кодек: DX50 704х388, 25 fps, 1301 Kbps
Аудио кодек: Mpeg audio Layer3 48.0 kHz, Stereo, 128 Kbps
Продолжительность: 38:56
Субтитры: внешние, .srt - рус
General
Complete name : Depeche Mode Short Films from Remasters DVDRip rus sub\Depeche Mode 1984 - SGR - A Short Film.avi
Format : AVI
Format/Info : Audio Video Interleave
File size : 302 MiB
Duration : 29mn 21s
Overall bit rate : 1 438 Kbps
Movie name : "You can get away with anything as long as you give it a good tune..."
Encoded by : Maxxash
Video
Format : MPEG-4 Visual
Format settings, BVOP : Yes
Format settings, QPel : No
Format settings, GMC : No warppoints
Format settings, Matrix : Default
Muxing mode : Packed bitstream
Codec ID : DX50
Codec ID/Hint : DivX 5
Duration : 29mn 21s
Bit rate : 1 300 Kbps
Width : 720 pixels
Height : 392 pixels
Display aspect ratio : 16/9
Frame rate : 25.000 fps
Resolution : 24 bits
Colorimetry : 4:2:0
Scan type : Progressive
Bits/(Pixel*Frame) : 0.184
Stream size : 273 MiB (90%)
Title : Video
Writing library : DivX 6.8.0 Converter 6.6
Audio
Format : MPEG Audio
Format version : Version 1
Format profile : Layer 3
Codec ID : 55
Codec ID/Hint : MP3
Duration : 29mn 21s
Bit rate mode : Constant
Bit rate : 128 Kbps
Channel(s) : 2 channels
Sampling rate : 48.0 KHz
Resolution : 16 bits
Stream size : 26.9 MiB (9%)
Alignment : Split accross interleaves
Interleave, duration : 40 ms (1.00 video frame)
Interleave, preload duration : 500 ms
Title : Audio
Writing library : LAME3.92
Качество: DVDRip
Формат: AVI
Видео кодек: DX50 720х392, 25 fps, 1300 Kbps
Аудио кодек: Mpeg audio Layer3 48.0 kHz, Stereo, 128 Kbps
Продолжительность: 29:21
Субтитры: внешние .srt - рус
General
Complete name : Depeche Mode Short Films from Remasters DVDRip rus sub\Depeche Mode 1986 - BC - A Short Film.avi
Format : AVI
Format/Info : Audio Video Interleave
File size : 593 MiB
Duration : 57mn 40s
Overall bit rate : 1 438 Kbps
Movie name : "The songs aren't good enough, there aren't any singles and it'll never get played on the radio"
Movie name/Url : Originally shared on demonoid.com
Encoded by : Maxxash
Video
Format : MPEG-4 Visual
Format settings, BVOP : Yes
Format settings, QPel : No
Format settings, GMC : No warppoints
Format settings, Matrix : Default
Codec ID : DX50
Codec ID/Hint : DivX 5
Duration : 57mn 40s
Bit rate : 1 300 Kbps
Width : 720 pixels
Height : 388 pixels
Display aspect ratio : 1.856
Frame rate : 25.000 fps
Resolution : 24 bits
Colorimetry : 4:2:0
Scan type : Progressive
Bits/(Pixel*Frame) : 0.186
Stream size : 536 MiB (90%)
Title : Video
Writing library : DivX 6.8.0 Converter 6.6
Audio
Format : MPEG Audio
Format version : Version 1
Format profile : Layer 3
Codec ID : 55
Codec ID/Hint : MP3
Duration : 57mn 40s
Bit rate mode : Constant
Bit rate : 128 Kbps
Channel(s) : 2 channels
Sampling rate : 48.0 KHz
Resolution : 16 bits
Stream size : 52.8 MiB (9%)
Alignment : Split accross interleaves
Interleave, duration : 40 ms (1.00 video frame)
Interleave, preload duration : 500 ms
Title : Audio
Writing library : LAME3.92


Качество: DVDRip
Формат: AVI
Видео кодек: DX50 720х388, 25 fps, 1300 Kbps
Аудио кодек: Mpeg audio Layer3 48.0 kHz, Stereo, 128 Kbps
Продолжительность: 57:40
Субтитры: внешние, .srt - рус
General
Complete name : Depeche Mode Short Films from Remasters DVDRip rus sub\Depeche Mode 1987 - MFTM - A Short Film.avi
Format : AVI
Format/Info : Audio Video Interleave
File size : 382 MiB
Duration : 37mn 6s
Overall bit rate : 1 438 Kbps
Movie name : "Sometimes you do need some new jokes..."
Movie name/Url : Originally shared on demonoid.com
Encoded by : Maxxash
Video
Format : MPEG-4 Visual
Format settings, BVOP : Yes
Format settings, QPel : No
Format settings, GMC : No warppoints
Format settings, Matrix : Default
Codec ID : DX50
Codec ID/Hint : DivX 5
Duration : 37mn 6s
Bit rate : 1 300 Kbps
Width : 720 pixels
Height : 388 pixels
Display aspect ratio : 1.856
Frame rate : 25.000 fps
Resolution : 24 bits
Colorimetry : 4:2:0
Scan type : Progressive
Bits/(Pixel*Frame) : 0.186
Stream size : 345 MiB (90%)
Writing library : DivX 6.8.0 Converter 6.6
Audio
Format : MPEG Audio
Format version : Version 1
Format profile : Layer 3
Codec ID : 55
Codec ID/Hint : MP3
Duration : 37mn 6s
Bit rate mode : Constant
Bit rate : 128 Kbps
Channel(s) : 2 channels
Sampling rate : 48.0 KHz
Resolution : 16 bits
Stream size : 34.0 MiB (9%)
Alignment : Aligned on interleaves
Interleave, duration : 40 ms (1.00 video frame)
Interleave, preload duration : 504 ms
Writing library : LAME3.97




Качество: DVDRip
Формат: AVI
Видео кодек: DX50 720х388, 25 fps, 1300 Kbps
Аудио кодек: Mpeg audio Layer3 48.0 kHz, Stereo, 128 Kbps
Продолжительность: 37:06
Субтитры: внешние, .srt - рус
General
Complete name : Short films from remasters\Depeche Mode 1990 - Violator - A Short Film.mkv
Format : Matroska
File size : 222 MiB
Duration : 32mn 31s
Overall bit rate : 953 Kbps
Encoded date : UTC 2007-10-23 19:51:10
Writing application : mkvmerge v2.1.0 ('Another Place To Fall') built on Aug 19 2007 13:40:07
Writing library : libebml v0.7.7 + libmatroska v0.8.1
Video #1
Format : VP6.2
Codec ID : VP62
Codec ID/Hint : On2
Duration : 32mn 31s
Bit rate : 776 Kbps
Width : 710 pixels
Height : 384 pixels
Display aspect ratio : 16/9
Frame rate : 25.000 fps
Resolution : 24 bits
Bits/(Pixel*Frame) : 0.114
Audio #2
Format : MPEG Audio
Format version : Version 1
Format profile : Layer 3
Codec ID : A_MPEG/L3
Codec ID/Hint : MP3
Duration : 32mn 31s
Bit rate mode : Constant
Bit rate : 128 Kbps
Channel(s) : 2 channels
Sampling rate : 48.0 KHz
Resolution : 16 bits
Language : English
Text #3
Format : UTF-8
Codec ID : S_TEXT/UTF8
Codec ID/Info : UTF-8 Plain Text
Language : Russian
Text #4
Format : UTF-8
Codec ID : S_TEXT/UTF8
Codec ID/Info : UTF-8 Plain Text
Language : English


Качество: DVDRip
Формат: MKV
Видео кодек: VP62 720х384, 25 fps, 776 Kbps
Аудио кодек: Mpeg audio Layer3 48.0 kHz, Stereo, 128 Kbps
Продолжительность: 32:31
Субтитры: внутренние, отключаемые - англ, рус
General
Complete name : Depeche Mode 1993 - SOFAD - A Short Film.avi
Format : AVI
Format/Info : Audio Video Interleave
File size : 371 MiB
Duration : 36mn 1s
Overall bit rate : 1 438 Kbps
Movie name : "We were going to live together, record together... and it was going to be wonderful..."
Movie name/Url : Originally shared on demonoid.com
Encoded by : Maxxash
Video
Format : MPEG-4 Visual
Format settings, BVOP : Yes
Format settings, QPel : No
Format settings, GMC : No warppoints
Format settings, Matrix : Default
Codec ID : DX50
Codec ID/Hint : DivX 5
Duration : 36mn 1s
Bit rate : 1 300 Kbps
Width : 720 pixels
Height : 388 pixels
Display aspect ratio : 1.856
Frame rate : 25.000 fps
Resolution : 24 bits
Colorimetry : 4:2:0
Scan type : Progressive
Bits/(Pixel*Frame) : 0.186
Stream size : 335 MiB (90%)
Title : Video
Writing library : DivX 6.8.0 Converter 6.6
Audio
Format : MPEG Audio
Format version : Version 1
Format profile : Layer 3
Codec ID : 55
Codec ID/Hint : MP3
Duration : 36mn 1s
Bit rate mode : Constant
Bit rate : 128 Kbps
Channel(s) : 2 channels
Sampling rate : 48.0 KHz
Resolution : 16 bits
Stream size : 33.0 MiB (9%)
Alignment : Split accross interleaves
Interleave, duration : 40 ms (1.00 video frame)
Interleave, preload duration : 500 ms
Title : Audio
Writing library : LAME3.92


Качество: DVDRip
Формат: AVI
Видео кодек: DX50 720х388, 25 fps, 1300 Kbps
Аудио кодек: Mpeg audio Layer3 48.0 kHz, Stereo, 128 Kbps
Продолжительность: 36:01
Субтитры: внешние .srt - рус
General
Complete name : Short films from remasters\Depeche Mode 1997 - Ultra - A Short Film.mkv
Format : Matroska
File size : 320 MiB
Duration : 47mn 30s
Overall bit rate : 942 Kbps
Encoded date : UTC 2007-10-12 15:15:12
Writing application : mkvmerge v2.1.0 ('Another Place To Fall') built on Aug 19 2007 13:40:07
Writing library : libebml v0.7.7 + libmatroska v0.8.1
Video #1
Format : VP6.2
Codec ID : VP62
Codec ID/Hint : On2
Duration : 47mn 30s
Bit rate : 766 Kbps
Width : 677 pixels
Height : 384 pixels
Display aspect ratio : 16/9
Frame rate : 25.000 fps
Resolution : 24 bits
Bits/(Pixel*Frame) : 0.118
Audio #2
Format : MPEG Audio
Format version : Version 1
Format profile : Layer 3
Codec ID : A_MPEG/L3
Codec ID/Hint : MP3
Duration : 47mn 30s
Bit rate mode : Constant
Bit rate : 128 Kbps
Channel(s) : 2 channels
Sampling rate : 48.0 KHz
Resolution : 16 bits
Text #3
Format : UTF-8
Codec ID : S_TEXT/UTF8
Codec ID/Info : UTF-8 Plain Text
Language : Russian
Text #4
Format : UTF-8
Codec ID : S_TEXT/UTF8
Codec ID/Info : UTF-8 Plain Text
Language : English


Качество: DVDRip
Формат: MKV
Видео кодек: VP62 688х384, 25 fps, 766 Kbps
Аудио кодек: Mpeg audio Layer3 48.0 kHz, Stereo, 128 Kbps
Продолжительность: 47:30
Субтитры: внутренние, отключаемые - англ, рус
General
Complete name : Depeche Mode Short Films from Remasters DVDRip rus sub\Depeche Mode 2001 - Exсiter - A Short Film.mkv
Format : Matroska
File size : 220 MiB
Duration : 32mn 25s
Overall bit rate : 950 Kbps
Encoded date : UTC 2007-10-12 17:12:42
Writing application : mkvmerge v2.1.0 ('Another Place To Fall') built on Aug 19 2007 13:40:07
Writing library : libebml v0.7.7 + libmatroska v0.8.1
Video #1
Format : VP6.2
Codec ID : VP62
Codec ID/Hint : On2
Duration : 32mn 25s
Bit rate : 773 Kbps
Width : 696 pixels
Height : 384 pixels
Display aspect ratio : 16/9
Frame rate : 25.000 fps
Resolution : 24 bits
Bits/(Pixel*Frame) : 0.116
Audio #2
Format : MPEG Audio
Format version : Version 1
Format profile : Layer 3
Codec ID : A_MPEG/L3
Codec ID/Hint : MP3
Duration : 32mn 25s
Bit rate mode : Constant
Bit rate : 128 Kbps
Channel(s) : 2 channels
Sampling rate : 48.0 KHz
Resolution : 16 bits
Text #3
Format : UTF-8
Codec ID : S_TEXT/UTF8
Codec ID/Info : UTF-8 Plain Text
Language : Russian
Text #4
Format : UTF-8
Codec ID : S_TEXT/UTF8
Codec ID/Info : UTF-8 Plain Text
Language : English


Качество: DVDRip
Формат: MKV
Видео кодек: VP62 704х384, 25 fps, 773 Kbps
Аудио кодек: Mpeg audio Layer3 48.0 kHz, Stereo, 128 Kbps
Продолжительность: 32:25
Субтитры: внутренние, отключаемые - англ, рус
General
Complete name : Depeche Mode Short Films from Remasters DVDRip rus sub\Depeche Mode 2006 - The Best Of Vol 1 - A Short Film.avi
Format : AVI
Format/Info : Audio Video Interleave
File size : 311 MiB
Duration : 30mn 14s
Overall bit rate : 1 438 Kbps
Movie name : Depeche Mode: 1980-2006
Movie name/Url : Originally shared on demonoid.com
Encoded by : Maxxash
Video
Format : MPEG-4 Visual
Format settings, BVOP : Yes
Format settings, QPel : No
Format settings, GMC : No warppoints
Format settings, Matrix : Default
Codec ID : DX50
Codec ID/Hint : DivX 5
Duration : 30mn 14s
Bit rate : 1 301 Kbps
Width : 704 pixels
Height : 388 pixels
Display aspect ratio : 16/9
Frame rate : 25.000 fps
Resolution : 24 bits
Colorimetry : 4:2:0
Scan type : Progressive
Bits/(Pixel*Frame) : 0.190
Stream size : 281 MiB (90%)
Title : Video
Writing library : DivX 6.8.0 Converter 6.6
Audio
Format : MPEG Audio
Format version : Version 1
Format profile : Layer 3
Codec ID : 55
Codec ID/Hint : MP3
Duration : 30mn 14s
Bit rate mode : Constant
Bit rate : 128 Kbps
Channel(s) : 2 channels
Sampling rate : 48.0 KHz
Resolution : 16 bits
Stream size : 27.7 MiB (9%)
Alignment : Split accross interleaves
Interleave, duration : 40 ms (1.00 video frame)
Interleave, preload duration : 500 ms
Title : Audio
Writing library : LAME3.92


Качество: DVDRip
Формат: AVI
Видео кодек: DX50 704х388, 25 fps, 1301 Kbps
Аудио кодек: Mpeg audio Layer3 48.0 kHz, Stereo, 128 Kbps
Продолжительность: 30:14
Субтитры: внешние .srt - рус


Трекер:  [ 26-Ноя-2011 00:23 ]

  

Скачать .torrent

Размер .torrent файла 19 KB


Размер: 3.52 GB
Хэш (hash) релиза: 47b4f65e71994939cd9d72815328f99cdd5e2a59

Еще никто не оставлял запись к записи скачать торрент Depeche Mode - Short Films from Remastered DVD . Будь первым!

!Обратная связь