Скачать через торрент музыку Scooter & Antonella Ruggiero - Ti Sento бесплатно без регистрации torrent

Если у вас наблюдаются проблемы со скриншотами, переходом по ссылками, скачиванием торрентов - проблемы в блокировщике рекламы AdBlock. #хорошегоДня!


Статистика раздачи
Размер:  616 MB   |    Зарегистрирован:  5 лет 10 месяцев   |    .torrent скачан:  29 раз   |   
Раздают:  1  
   
Загрузка...
 
Автор Сообщение

Galfimbul

avatar Galfimbul


Scooter & Antonella Ruggiero - Ti Sento

Matia Bazar MVIDS youtube
Scooter & Antonella Ruggiero - Ti Sento Making Of 2009
Страна: Germany
Label: Sheffield Tunes (Germany) / All Around The World (UK)
Жанр: Hard Trance / Jumpstyle / New Wave
Год выпуска: 2009
В ролях:
Hans Peter Geerdes (Scooter band)
Antonella Ruggiero (Matia Bazar band)

01 Scooter - Ti Sento (Offical Music Video)
DVD Source: Promo Only UK Chart Video July 2010

Описание:

Аудио ряд:
Scooter - Under the Radar Over the Top (2009)
3. "Ti Sento" (feat. Antonella Ruggiero)
Scooter - Under the Radar Over the Top 2009

Видео ряд:
Scooter - Ti Sento - Официальное видео гр. Scooter

Качество: DVD
Контейнер: VOB
Продолжительность: 231 MiB for 3mn 57s 280ms
Видео кодек: MPEG2
Аудио кодек: LPCM
Видео: MPEG Video at 6 478 Kbps 720 x 576 (1.333) (@ 768 x 576) at 25.000 fps
Аудио: PCM at 1 536 Kbps 2 channels, 48.0 KHz[/align]
Format : MPEG-PS
File size : 231 MiB
Duration : 3mn 57s
Overall bit rate : 8 176 Kbps
Writing library : http://vayper-ski.net

Video
ID : 224 (0xE0)
Format : MPEG Video
Format version : Version 2
Format profile : Main@Main
Format settings, BVOP : Yes
Format settings, Matrix : Default
Format settings, GOP : M=3, N=13
Duration : 3mn 57s
Bit rate mode : Variable
Bit rate : 6 478 Kbps
Nominal bit rate : 8 000 Kbps
Width : 720 pixels
Height : 576 pixels
Display aspect ratio : 4:3
Frame rate : 25.000 fps
Standard : PAL
Color space : YUV
Chroma subsampling : 4:2:0
Bit depth : 8 bits
Scan type : Interlaced
Scan order : Top Field First
Bits/(Pixel*Frame) : 0.625
Stream size : 183 MiB (79%)
Writing library : http://vayper-ski.net

Audio
ID : 160 (0xA0)
Format : PCM
Format settings, Endianness : Big
Format settings, Sign : Signed
Muxing mode : DVD-Video
Duration : 3mn 57s
Bit rate mode : Constant
Bit rate : 1 536 Kbps
Channel(s) : 2 channels
Channel positions : Front: L R
Sampling rate : 48.0 KHz
Bit depth : 16 bits
Stream size : 43.4 MiB (19%)
02 Scooter - Ti Sento (Offical Extended Mix)
DVD Source: MV Network Kontor.TV

Описание:

Аудио ряд:
Scooter - Ti Sento 2009

Видео ряд:
Scooter - Ti Sento - Официальное видео гр. Scooter MemuX

Качество: TVRip
Контейнер: MPG
Продолжительность: 197 MiB for 6mn 10s 120ms
Видео кодек: MPEG2
Аудио кодек: AC-3
Видео: MPEG Video at 4 121 Kbps 720 x 576 (1.333) (@ 768 x 576) at 25.000 fps
Аудио: AC-3 at 256 Kbps 2 channels, 48.0 KHz
Format : MPEG-PS
File size : 197 MiB
Duration : 6mn 10s
Overall bit rate : 4 466 Kbps

Video
ID : 224 (0xE0)
Format : MPEG Video
Format version : Version 2
Format profile : Main@Main
Format settings, BVOP : Yes
Format settings, Matrix : Default
Format settings, GOP : M=3, N=12
Duration : 6mn 10s
Bit rate mode : Variable
Bit rate : 4 121 Kbps
Nominal bit rate : 9 200 Kbps
Width : 720 pixels
Height : 576 pixels
Display aspect ratio : 4:3
Frame rate : 25.000 fps
Standard : PAL
Color space : YUV
Chroma subsampling : 4:2:0
Bit depth : 8 bits
Scan type : Progressive
Bits/(Pixel*Frame) : 0.398
Stream size : 182 MiB (92%)

Audio
ID : 128 (0x80)
Format : AC-3
Format/Info : Audio Coding 3
Mode extension : CM (complete main)
Duration : 6mn 9s
Bit rate mode : Constant
Bit rate : 256 Kbps
Channel(s) : 2 channels
Channel positions : Front: L R
Sampling rate : 48.0 KHz
Bit depth : 16 bits
Stream size : 11.3 MiB (6%)
02 Scooter - Ti Sento (Live In Hamburg) 2010
DVD Source: Scooter - Live In Hamburg 2010

Описание:

Качество: DVD
Контейнер: VOB
Продолжительность: 188 MiB for 4mn 1s 744ms
Видео кодек: MPEG2
Аудио кодек: AC-3
Видео: MPEG Video at 5 694 Kbps 720 x 576 (1.778) (@ 1024 x 576) at 25.000 fps
Аудио: AC-3 at 256 Kbps 2 channels, 48.0 KHz
Аудио: AC-3 at 448 Kbps 6 channels, 48.0 KHz
Format : MPEG-PS
File size : 188 MiB
Duration : 4mn 1s
Overall bit rate : 6 527 Kbps

Video
ID : 224 (0xE0)
Format : MPEG Video
Format version : Version 2
Format profile : Main@Main
Format settings, BVOP : Yes
Format settings, Matrix : Default
Format settings, GOP : M=3, N=15
Duration : 4mn 1s
Bit rate mode : Variable
Bit rate : 5 694 Kbps
Nominal bit rate : 8 000 Kbps
Width : 720 pixels
Height : 576 pixels
Display aspect ratio : 16:9
Frame rate : 25.000 fps
Standard : PAL
Color space : YUV
Chroma subsampling : 4:2:0
Bit depth : 8 bits
Scan type : Interlaced
Scan order : Top Field First
Bits/(Pixel*Frame) : 0.549
Stream size : 164 MiB (87%)

Audio #1
ID : 128 (0x80)
Format : AC-3
Format/Info : Audio Coding 3
Mode extension : CM (complete main)
Duration : 4mn 1s
Bit rate mode : Constant
Bit rate : 256 Kbps
Channel(s) : 2 channels
Channel positions : Front: L R
Sampling rate : 48.0 KHz
Bit depth : 16 bits
Video delay : -8ms
Stream size : 7.38 MiB (4%)

Audio #2
ID : 129 (0x81)
Format : AC-3
Format/Info : Audio Coding 3
Mode extension : CM (complete main)
Duration : 4mn 1s
Bit rate mode : Constant
Bit rate : 448 Kbps
Channel(s) : 6 channels
Channel positions : Front: L C R, Side: L R, LFE
Sampling rate : 48.0 KHz
Bit depth : 16 bits
Video delay : -24ms
Stream size : 12.9 MiB (7%)


Трекер:  [ 26-Ноя-2011 00:22 ]

  

Скачать .torrent

Размер .torrent файла 12 KB


Размер: 616 MB
Хэш (hash) релиза: a0b85f302cd2797668717003f2443d4619d57052

Торренты, похожие на Scooter & Antonella Ruggiero - Ti Sento скачать торрент

Форум Название Автор Размер S L Добавлен
Электронная музыка (video) ·· Antonella Ruggiero con Scooter - Ti Sento (Live 10.10.2009) [Hard Trance, TVRip] Galfimbul 3873978437 MB 0 0 1294846614

18:36

12-Янв-11

Еще никто не оставлял запись к записи скачать торрент Scooter & Antonella Ruggiero - Ti Sento . Будь первым!

!Обратная связь