Скачать через торрент музыку Globus — Live At Wembley бесплатно без регистрации torrent

Если у вас наблюдаются проблемы со скриншотами, переходом по ссылками, скачиванием торрентов - проблемы в блокировщике рекламы AdBlock. #хорошегоДня!


Статистика раздачи
Размер:  744 MB   |    Зарегистрирован:  5 лет 10 месяцев   |    .torrent скачан:  36 раз   |   
Раздают:  1  
   
Загрузка...
 
Автор Сообщение

Galfimbul

avatar Galfimbul


Globus — Live At Wembley

Страна: Великобритания
Жанр: Epic Rock, New Age
Продолжительность: 01:00:04
Год выпуска: 2008

Описание: Это фильм-концерт — документальный фильм и концерт в «The Grand Hall» (Уэмбли, Лондон, Великобритания), состоявщийся 26 июля 2006 года. Были исполнены композиции из альбома «Epicon». На сцене было 50 участников хора, 60 единиц оркестра и рок-музыкант мирового класса Mark Richardson из рок-группы «Feeder» на ударных.
1. Before the show
2. Arcana (Concert)
3. Europe (Concert)
4. Prelude: On Earth As In Heaven (Concert)
5. Madre Terra (Concert)
6. Preliator (Concert)
7. Crusaders Of The Light (Concert)
8. La Coronacion (Concert)
9. Orchard in the studio
10. Orchard Of Mines (Concert)
11. Mighty Rivers Run (Concert)
12. Porque Te Vas (Concert)
13. Take Me Away (Concert)
14. Diem Ex Dei (Concert)
15. Dann and Yoav
Доп. информация:

Режиссёр: Amit Goren
Продюсер: Yoav Goren
Дата выпуска: 29 июля 2008 года
Лейбл: FILM BABY, Imperativa Records.
Источник: собственный рип

Качество: DVDRip-AVC
Контейнер: MKV
Видео кодек: H.264
Аудио кодек: AC3
Видео: x.264 (AVC), 720x400 (16:9), 1 282 Kbps, 25 fps, 0.178 Bits/(Pixel*Frame)
Аудио: AC3, 448 Kbps. 48.0 KHz, 6 channels (5.1 Dolby Digital)
General

Complete name : E:\uTorrent Downloads\Globus - Live at Wembley.2008.DVDRip-AVC.AC3.x264-8M-M8.mkv
Format : Matroska
File size : 744 MiB
Duration : 1h 0mn
Overall bit rate : 1 731 Kbps
Encoded date : UTC 2010-10-28 21:55:08
Writing application : mkvmerge v4.0.0 ('The Stars were mine') built on Jun 6 2010 16:18:42
Writing library : libebml v1.0.0 + libmatroska v1.0.0

Video

ID : 1
Format : AVC
Format/Info : Advanced Video Codec
Format profile : High@L3.1
Format settings, CABAC : Yes
Format settings, ReFrames : 8 frames
Muxing mode : Container profile=Unknown@3.1
Codec ID : V_MPEG4/ISO/AVC
Duration : 1h 0mn
Bit rate : 1 282 Kbps
Width : 720 pixels
Height : 400 pixels
Display aspect ratio : 16:9
Frame rate : 25.000 fps
Color space : YUV
Chroma subsampling : 4:2:0
Bit depth : 8 bits
Scan type : Progressive
Bits/(Pixel*Frame) : 0.178
Stream size : 536 MiB (72%)
Writing library : x264 core 98 r1649 c54c47d
Encoding settings : cabac=1 / ref=8 / deblock=1:-1:-1 / analyse=0x3:0x113 / me=umh / subme=7 / psy=1 / psy_rd=1.00:0.00 / mixed_ref=1 / me_range=16 / chroma_me=1 / trellis=2 / 8x8dct=1 / cqm=0 / deadzone=21,11 / fast_pskip=1 / chroma_qp_offset=-2 / threads=6 / sliced_threads=0 / nr=0 / decimate=1 / interlaced=0 / constrained_intra=0 / bframes=3 / b_pyramid=0 / b_adapt=2 / b_bias=0 / direct=3 / weightb=1 / weightp=2 / keyint=250 / keyint_min=25 / scenecut=40 / intra_refresh=0 / rc_lookahead=40 / rc=2pass / mbtree=1 / bitrate=1282 / ratetol=1.0 / qcomp=0.60 / qpmin=10 / qpmax=51 / qpstep=4 / cplxblur=20.0 / qblur=0.5 / vbv_maxrate=17500 / vbv_bufsize=14000 / ip_ratio=1.40 / aq=1:1.00 / nal_hrd=none
Language : English

Audio

ID : 2
Format : AC-3
Format/Info : Audio Coding 3
Mode extension : CM (complete main)
Codec ID : A_AC3
Duration : 1h 0mn
Bit rate mode : Constant
Bit rate : 448 Kbps
Channel(s) : 6 channels
Channel positions : Front: L C R, Side: L R, LFE
Sampling rate : 48.0 KHz
Bit depth : 16 bits
Video delay : 15ms
Stream size : 192 MiB (26%)


Трекер:  [ 26-Ноя-2011 00:21 ]

  

Скачать .torrent

Размер .torrent файла 15 KB


Размер: 744 MB
Хэш (hash) релиза: 2730451711bbf4ac462deccd4b433bff877828f1

Торренты, похожие на Globus — Live At Wembley скачать торрент

Форум Название Автор Размер S L Добавлен
Электронная музыка (video) ·· Globus — Live At Wembley [2008, Epic Rock, Cinematic Rock, DVD5] Galfimbul 46520258564.33 GB 0 0 1294835554

15:32

12-Янв-11

Еще никто не оставлял запись к записи скачать торрент Globus — Live At Wembley . Будь первым!

!Обратная связь