Скачать через торрент музыку Alphaville - ČT Live at Palac Zofin 4.12.2009 бесплатно без регистрации torrent

Если у вас наблюдаются проблемы со скриншотами, переходом по ссылками, скачиванием торрентов - проблемы в блокировщике рекламы AdBlock. #хорошегоДня!


Статистика раздачи
Размер:  802 MB   |    Зарегистрирован:  5 лет 10 месяцев   |    .torrent скачан:  18 раз   |   
Раздают:  1  
   
Загрузка...
 
Автор Сообщение

Galfimbul

avatar Galfimbul


Alphaville - ČT Live at Palac Zofin 4.12.2009

Страна: Germany
Жанр: Synthpop
Продолжительность: 00:51:37
Год выпуска: 2009

Описание: Концерт Alphaville посвященный 25 летию группы состоявшийся в Palac Zofin 4.12.2009. Видеосъемка Сeska Televize.

Треклист:
1.Wishful Thinking
2.Sounds like A Melody
3.Dance with Me
4.A Victory Of Love
5.Return to The Paradise
6.Monkey in The Moon
7.I Die For You Today
8.Forever young (feat. Karel Gott)
9.Jet Set
10.Big In Japan

Источник: собственный рип

Качество: TVRip
Контейнер: AVI
Видео кодек: XviD
Аудио кодек: MP3
Видео: Xvid, 722x406, 16:9, 2170 kbps, 30fps
Аудио: MP3, 160 kbps, 44 kHz, 2 Ch
General
Format : AVI
Format/Info : Audio Video Interleave
File size : 802 MiB
Duration : 51mn 37s
Overall bit rate : 2 171 Kbps
Writing application : VirtualDubMod 1.4.13
Writing library : VirtualDub build 14328/release

Video
ID : 0
Format : MPEG-4 Visual
Format profile : Advanced Simple@L5
Format settings, BVOP : Yes
Format settings, QPel : No
Format settings, GMC : No warppoints
Format settings, Matrix : Default (H.263)
Muxing mode : Packed bitstream
Codec ID : XVID
Codec ID/Hint : XviD
Duration : 51mn 37s
Bit rate : 1 999 Kbps
Width : 722 pixels
Height : 406 pixels
Display aspect ratio : 16:9
Frame rate : 30.000 fps
Resolution : 8 bits
Colorimetry : 4:2:0
Scan type : Progressive
Bits/(Pixel*Frame) : 0.227
Stream size : 738 MiB (92%)
Writing library : XviD 1.2.1 (UTC 2008-12-04)

Audio
ID : 1
Format : MPEG Audio
Format version : Version 1
Format profile : Layer 3
Format_Settings_Mode : Joint stereo
Format_Settings_ModeExtension : MS Stereo
Codec ID : 55
Codec ID/Hint : MP3
Duration : 51mn 37s
Bit rate mode : Constant
Bit rate : 160 Kbps
Channel(s) : 2 channels
Sampling rate : 44.1 KHz
Stream size : 59.1 MiB (7%)
Alignment : Split accross interleaves
Interleave, duration : 33 ms (1.00 video frame)
Interleave, preload duration : 460 ms


Трекер:  [ 26-Ноя-2011 00:28 ]

  

Скачать .torrent

Размер .torrent файла 16 KB


Размер: 802 MB
Хэш (hash) релиза: 1ecc633e5f1f9b727f90a809ba0cbcf847489582

Еще никто не оставлял запись к записи скачать торрент Alphaville - ČT Live at Palac Zofin 4.12.2009 . Будь первым!

!Обратная связь