Скачать через торрент музыку Combichrist - Live at IKRA club, Moscow бесплатно без регистрации torrent

Если у вас наблюдаются проблемы со скриншотами, переходом по ссылками, скачиванием торрентов - проблемы в блокировщике рекламы AdBlock. #хорошегоДня!


Статистика раздачи
Размер:  921 MB   |    Зарегистрирован:  5 лет 10 месяцев   |    .torrent скачан:  29 раз   |   
Раздают:  1  
   
Загрузка...
 
Автор Сообщение

Galfimbul

avatar Galfimbul


COMBICHRIST - Live at IKRA club, Moscow (27.02.2010)
Год выпуска: 2010
Жанр: TBM
Продолжительность: 1:19:17
Камера: [MXN]

Описание: Russian Synth Community представляет: Живое выступление TBM проекта COMBICHRIST в московском клубе IKRA 27 февраля 2010 года.

Трэк-лист:
1. All Pain is Gone
2. Rain of Blood
3. Scarred
4. Electohead
5. Without Emotions
6. Today We Are All Demons
7. Feed Your Anger
8. Get Your Body Beat
9. Get Out of My Head
10. Fuck that Shit
11. Are You Connected
12. This Shit Will Fuck You Up
Encore:
13. Shut Up and Swallow
14. WTF Is Wrong With You People?

Z. Marr [keyboards]; Trevor Friedrich [percussion]; Andy LaPlegua [vocals]; Joe Letz [drums]
General
Complete name : COMBICHRIST - Live at IKRA club, Moscow (27.02.2010) [MXN].avi
Format : AVI
Format/Info : Audio Video Interleave
File size : 921 MiB
Duration : 1h 19mn
Overall bit rate : 1 624 Kbps

Video
ID : 0
Format : MPEG-4 Visual
Format profile : Advanced Simple@L5
Format settings, BVOP : Yes
Format settings, QPel : No
Format settings, GMC : No warppoints
Format settings, Matrix : Default (H.263)
Muxing mode : Packed bitstream
Codec ID : XVID
Codec ID/Hint : XviD
Duration : 1h 19mn
Bit rate : 1 401 Kbps
Width : 720 pixels
Height : 432 pixels
Display aspect ratio : 1.667
Frame rate : 25.000 fps
Resolution : 8 bits
Colorimetry : 4:2:0
Scan type : Progressive
Bits/(Pixel*Frame) : 0.180
Stream size : 794 MiB (86%)
Writing library : XviD 1.2.1 (UTC 2008-12-04)

Audio
ID : 1
Format : MPEG Audio
Format version : Version 1
Format profile : Layer 3
Mode : Joint stereo
Format_Settings_ModeExtension : MS Stereo
Codec ID : 55
Codec ID/Hint : MP3
Duration : 1h 19mn
Bit rate mode : Variable
Bit rate : 48.0 Kbps
Channel(s) : 2 channels
Sampling rate : 44.1 KHz
Stream size : 120 MiB (13%)
Alignment : Aligned on interleaves
Interleave, duration : 26 ms (0.65 video frame)
Качество: CamRip
Формат: AVI
Видео кодек: XviD
Аудио кодек: MP3
Видео: Xvid 720x432 25.00fps 1624kbps
Аудио: MPEG Audio Layer 3 44100Hz stereo 48kbps

Трекер:  [ 26-Ноя-2011 10:18 ]

  

Скачать .torrent

Размер .torrent файла 18 KB


Размер: 921 MB
Хэш (hash) релиза: 954556ac4a03c3de5009e76c117eae767462fef4

Еще никто не оставлял запись к записи скачать торрент Combichrist - Live at IKRA club, Moscow . Будь первым!

!Обратная связь