Скачать через торрент музыку Enigma - Remember The Future бесплатно без регистрации torrent

Если у вас наблюдаются проблемы со скриншотами, переходом по ссылками, скачиванием торрентов - проблемы в блокировщике рекламы AdBlock. #хорошегоДня!


Статистика раздачи
Размер:  969 MB   |    Зарегистрирован:  5 лет 10 месяцев   |    .torrent скачан:  35 раз   |   
Раздают:  1  
   
Загрузка...
 
Автор Сообщение

Galfimbul

avatar Galfimbul


Enigma: Remember The Future
Год выпуска: 2001
Жанр: Ambient, New Age
Продолжительность: 00:49:18

Описание:

Видеоклипы (00:47:32)
MCMXC:
1. Sadeness (part 1)
2. Mea Culpa
3. Principles Of Lust
4. The Rivers Of Belief

The Cross:
5. Return To Innocence
6. The Eyes Of Truth
7. Age Og Loneliness (Carly's song)

Le Roi:
8. Beyond The Invisible
9. T.N.T. For The Brain

The Screen:
10. Gravity Of Love
11. Push The Limits
Скачать семпл
Качество: DVDRip
Формат: MKV
Видео кодек: H.264 (Nero Digital, DXVA Compatible)
Аудио кодек: FLAC
Видео: 720x528(4:3, pixel shape=square) 25fps VBR 1320 Kbps (up to 4352 Kbps)
Аудио#1: LC-AAC 2.0 48 Khz VBR 80 Kbps
Аудио#2: FLAC 2.0 48 Khz VBR 937 Kbps
Format : Matroska
File size : 793 MiB
Duration : 47mn 32s
Overall bit rate : 2 331 Kbps
Encoded date : UTC 2010-04-19 12:24:18
Writing application : mkvmerge v3.3.0 ('Language') built on Mar 24 2010 14:59:24
Writing library : libebml v0.8.0 + libmatroska v0.9.0

Video
ID : 1
Format : AVC
Format/Info : Advanced Video Codec
Format profile : High@L3.0
Format settings, CABAC : Yes
Format settings, ReFrames : 4 frames
Codec ID : avc1
Codec ID/Info : Advanced Video Coding
Duration : 47mn 32s
Bit rate mode : Variable
Bit rate : 1 320 Kbps
Maximum bit rate : 4 352 Kbps
Width : 720 pixels
Height : 528 pixels
Display aspect ratio : 4:3
Frame rate mode : Constant
Frame rate : 25.000 fps
Standard : PAL
Resolution : 8 bits
Colorimetry : 4:2:0
Scan type : Progressive
Bits/(Pixel*Frame) : 0.139
Stream size : 449 MiB (94%)
Language : English

Audio #1
ID : 2
Format : AAC
Format/Info : Advanced Audio Codec
Format version : Version 4
Format profile : LC
Format settings, SBR : No
Codec ID : A_AAC
Duration : 47mn 32s
Channel(s) : 2 channels
Channel positions : Front: L R
Sampling rate : 48.0 KHz
Title : LC-AAC 2.0 48 Khz VBR 80 bps
Language : English

Audio #2
ID : 3
Format : FLAC
Format/Info : Free Lossless Audio Codec
Codec ID : A_FLAC
Duration : 47mn 32s
Bit rate mode : Variable
Channel(s) : 2 channels
Sampling rate : 48.0 KHz
Resolution : 16 bits
Title : FLAC 2.0 48 Khz VBR 937 Kbps
Writing library : libFLAC 1.2.1 (UTC 2007-09-17)
Language : English

Menu
00:00:00.000 : en:Sadeness (part 1)
00:04:14.120 : en:Mea Culpa
00:08:20.208 : en:Principles Of Lust
00:11:48.257 : en:The Rivers Of Belief
00:16:15.746 : en:Return To Innocence
00:21:10.590 : en:The Eyes Of Truth
00:26:41.832 : en:Age Og Loneliness (Carly's song)
00:30:51.319 : en:Beyond The Invisible
00:35:27.483 : en:T.N.T. For The Brain
00:39:28.086 : en:Gravity Of Love
00:43:24.892 : en:Push The Limits
00:47:16.821 : en:End Credits
Бонусы:
1. Дискография (Видео) (Общая 00:18:40)
Общее
Полное имя : Enigma - Remember The Future 2001 DVDRip-AVC\Discography\Discography part 1.mp4
Формат : MPEG-4
Профайл формата : Base Media / Version 2
Идентификатор кодека : mp42
Размер файла : 64,5 МиБ
Продолжительность : 6 м. 51 с.
Общий поток : 1314 Кбит/сек
Дата кодирования : UTC 2010-04-19 12:20:55
Дата пометки : UTC 2010-04-19 12:54:32

Видео
Идентификатор : 1
Формат : AVC
Формат/Информация : Advanced Video Codec
Профайл формата : High@L3.0
Параметры CABAC формата : Да
Параметры ReFrames формата : 4 кадры
Идентификатор кодека : avc1
Идентификатор кодека/Информация : Advanced Video Coding
Продолжительность : 6 м. 51 с.
Вид битрейта : Переменный
Битрейт : 1233 Кбит/сек
Максимальный битрейт : 3546 Кбит/сек
Ширина : 720 пикс.
Высота : 528 пикс.
Соотношение кадра : 4:3
Режим частоты кадров : Постоянный
Частота кадров : 25,000 кадр/сек
Стандарт вещания : PAL
Разрешение : 8 бит
Колориметрия : 4:2:0
Тип развёртки : Прогрессивная
Бит/(Пиксели*Кадры) : 0.130
Размер потока : 60,4 МиБ (94%)
Язык : English
Дата кодирования : UTC 2010-04-19 12:20:55
Дата пометки : UTC 2010-04-19 12:54:32

Аудио
Идентификатор : 2
Формат : AAC
Формат/Информация : Advanced Audio Codec
Версия формата : Version 4
Профайл формата : LC
Параметры SBR формата : Нет
Идентификатор кодека : 40
Продолжительность : 6 м. 51 с.
Вид битрейта : Переменный
Битрейт : 77,8 Кбит/сек
Максимальный битрейт : 84,3 Кбит/сек
Канал(ы) : 2 канала(ов)
Расположение каналов : Front: L R
Частота : 48,0 КГц
Размер потока : 3,82 МиБ (6%)
Заголовок : Неопределенный
Язык : English
Дата кодирования : UTC 2010-04-19 12:20:55
Дата пометки : UTC 2010-04-19 12:54:32

Текст
Идентификатор : 3
Формат : VobSub
Идентификатор кодека : subp
Идентификатор кодека/Информация : The same subtitle format used on DVDs
Продолжительность : 6 м. 45 с.
Вид битрейта : Переменный
Битрейт : 196 бит/сек
Размер потока : 9,72 КиБ (0%)
Заголовок : Неопределенный
Язык : English
Дата кодирования : UTC 2010-04-19 12:20:55
Дата пометки : UTC 2010-04-19 12:54:32

Меню
00:00:00.000 : Раздел 1
00:01:53.680 : Раздел 2
00:03:18.920 : Раздел 3
00:05:02.240 : Раздел 4

Общее
Полное имя : Enigma - Remember The Future 2001 DVDRip-AVC\Discography\Discography part 2.mp4
Формат : MPEG-4
Профайл формата : Base Media / Version 2
Идентификатор кодека : mp42
Размер файла : 41,8 МиБ
Продолжительность : 5 м. 35 с.
Общий поток : 1045 Кбит/сек
Дата кодирования : UTC 2010-04-19 13:00:08
Дата пометки : UTC 2010-04-19 13:18:46

Видео
Идентификатор : 1
Формат : AVC
Формат/Информация : Advanced Video Codec
Профайл формата : High@L3.0
Параметры CABAC формата : Да
Параметры ReFrames формата : 4 кадры
Идентификатор кодека : avc1
Идентификатор кодека/Информация : Advanced Video Coding
Продолжительность : 4 м. 26 с.
Вид битрейта : Переменный
Битрейт : 1235 Кбит/сек
Максимальный битрейт : 3947 Кбит/сек
Ширина : 720 пикс.
Высота : 528 пикс.
Соотношение кадра : 4:3
Режим частоты кадров : Постоянный
Частота кадров : 25,000 кадр/сек
Стандарт вещания : PAL
Разрешение : 8 бит
Колориметрия : 4:2:0
Тип развёртки : Прогрессивная
Бит/(Пиксели*Кадры) : 0.130
Размер потока : 39,2 МиБ (94%)
Язык : English
Дата кодирования : UTC 2010-04-19 13:00:08
Дата пометки : UTC 2010-04-19 13:18:46

Аудио
Идентификатор : 2
Формат : AAC
Формат/Информация : Advanced Audio Codec
Версия формата : Version 4
Профайл формата : LC
Параметры SBR формата : Нет
Идентификатор кодека : 40
Продолжительность : 4 м. 26 с.
Вид битрейта : Переменный
Битрейт : 77,8 Кбит/сек
Максимальный битрейт : 84,2 Кбит/сек
Канал(ы) : 2 канала(ов)
Расположение каналов : Front: L R
Частота : 48,0 КГц
Размер потока : 2,48 МиБ (6%)
Заголовок : Неопределенный
Язык : English
Дата кодирования : UTC 2010-04-19 13:00:08
Дата пометки : UTC 2010-04-19 13:18:46

Текст
Идентификатор : 3
Формат : VobSub
Идентификатор кодека : subp
Идентификатор кодека/Информация : The same subtitle format used on DVDs
Продолжительность : 5 м. 35 с.
Вид битрейта : Переменный
Битрейт : 171 бит/сек
Размер потока : 7,00 КиБ (0%)
Заголовок : Неопределенный
Язык : English
Дата кодирования : UTC 2010-04-19 13:00:08
Дата пометки : UTC 2010-04-19 13:18:46

Меню
00:00:00.000 : Раздел 1
00:01:36.400 : Раздел 2
00:03:36.160 : Раздел 3

Общее
Полное имя : Enigma - Remember The Future 2001 DVDRip-AVC\Discography\Discography part 3.mp4
Формат : MPEG-4
Профайл формата : Base Media / Version 2
Идентификатор кодека : mp42
Размер файла : 17,2 МиБ
Продолжительность : 1 м. 56 с.
Общий поток : 1244 Кбит/сек
Дата кодирования : UTC 2010-04-19 13:21:09
Дата пометки : UTC 2010-04-19 13:28:59

Видео
Идентификатор : 1
Формат : AVC
Формат/Информация : Advanced Video Codec
Профайл формата : High@L3.0
Параметры CABAC формата : Да
Параметры ReFrames формата : 4 кадры
Идентификатор кодека : avc1
Идентификатор кодека/Информация : Advanced Video Coding
Продолжительность : 1 м. 51 с.
Вид битрейта : Переменный
Битрейт : 1211 Кбит/сек
Максимальный битрейт : 2279 Кбит/сек
Ширина : 720 пикс.
Высота : 528 пикс.
Соотношение кадра : 4:3
Режим частоты кадров : Постоянный
Частота кадров : 25,000 кадр/сек
Стандарт вещания : PAL
Разрешение : 8 бит
Колориметрия : 4:2:0
Тип развёртки : Прогрессивная
Бит/(Пиксели*Кадры) : 0.127
Размер потока : 16,1 МиБ (94%)
Язык : English
Дата кодирования : UTC 2010-04-19 13:21:09
Дата пометки : UTC 2010-04-19 13:28:59

Аудио
Идентификатор : 2
Формат : AAC
Формат/Информация : Advanced Audio Codec
Версия формата : Version 4
Профайл формата : LC
Параметры SBR формата : Нет
Идентификатор кодека : 40
Продолжительность : 1 м. 52 с.
Вид битрейта : Переменный
Битрейт : 77,9 Кбит/сек
Максимальный битрейт : 82,8 Кбит/сек
Канал(ы) : 2 канала(ов)
Расположение каналов : Front: L R
Частота : 48,0 КГц
Размер потока : 1,04 МиБ (6%)
Заголовок : Неопределенный
Язык : English
Дата кодирования : UTC 2010-04-19 13:21:09
Дата пометки : UTC 2010-04-19 13:28:59

Текст
Идентификатор : 3
Формат : VobSub
Идентификатор кодека : subp
Идентификатор кодека/Информация : The same subtitle format used on DVDs
Продолжительность : 1 м. 56 с.
Вид битрейта : Переменный
Битрейт : 315 бит/сек
Размер потока : 4,46 КиБ (0%)
Заголовок : Неопределенный
Язык : English
Дата кодирования : UTC 2010-04-19 13:21:10
Дата пометки : UTC 2010-04-19 13:28:59

Меню
00:00:00.000 : Раздел 1
00:00:58.080 : Раздел 2

Общее
Полное имя : Enigma - Remember The Future 2001 DVDRip-AVC\Discography\Discography part 4.mp4
Формат : MPEG-4
Профайл формата : Base Media / Version 2
Идентификатор кодека : mp42
Размер файла : 40,1 МиБ
Продолжительность : 4 м. 17 с.
Общий поток : 1309 Кбит/сек
Дата кодирования : UTC 2010-04-19 13:34:41
Дата пометки : UTC 2010-04-19 13:54:11

Видео
Идентификатор : 1
Формат : AVC
Формат/Информация : Advanced Video Codec
Профайл формата : High@L3.0
Параметры CABAC формата : Да
Параметры ReFrames формата : 4 кадры
Идентификатор кодека : avc1
Идентификатор кодека/Информация : Advanced Video Coding
Продолжительность : 4 м. 16 с.
Вид битрейта : Переменный
Битрейт : 1229 Кбит/сек
Максимальный битрейт : 2596 Кбит/сек
Ширина : 720 пикс.
Высота : 528 пикс.
Соотношение кадра : 4:3
Режим частоты кадров : Постоянный
Частота кадров : 25,000 кадр/сек
Стандарт вещания : PAL
Разрешение : 8 бит
Колориметрия : 4:2:0
Тип развёртки : Прогрессивная
Бит/(Пиксели*Кадры) : 0.129
Размер потока : 37,6 МиБ (94%)
Язык : English
Дата кодирования : UTC 2010-04-19 13:34:41
Дата пометки : UTC 2010-04-19 13:54:11

Аудио
Идентификатор : 2
Формат : AAC
Формат/Информация : Advanced Audio Codec
Версия формата : Version 4
Профайл формата : LC
Параметры SBR формата : Нет
Идентификатор кодека : 40
Продолжительность : 4 м. 17 с.
Вид битрейта : Переменный
Битрейт : 77,8 Кбит/сек
Максимальный битрейт : 83,0 Кбит/сек
Канал(ы) : 2 канала(ов)
Расположение каналов : Front: L R
Частота : 48,0 КГц
Размер потока : 2,38 МиБ (6%)
Заголовок : Неопределенный
Язык : English
Дата кодирования : UTC 2010-04-19 13:34:41
Дата пометки : UTC 2010-04-19 13:54:11

Текст
Идентификатор : 3
Формат : VobSub
Идентификатор кодека : subp
Идентификатор кодека/Информация : The same subtitle format used on DVDs
Продолжительность : 4 м. 0 с.
Вид битрейта : Переменный
Битрейт : 149 бит/сек
Размер потока : 4,38 КиБ (0%)
Заголовок : Неопределенный
Язык : English
Дата кодирования : UTC 2010-04-19 13:34:42
Дата пометки : UTC 2010-04-19 13:54:11

Меню
00:00:00.000 : Раздел 1
00:02:00.080 : Раздел 2
2. Факты (Видео) (00:01:19)
Format : MPEG-4
Format profile : Base Media / Version 2
Codec ID : mp42
File size : 12.6 MiB
Duration : 1mn 19s
Overall bit rate : 1 322 Kbps
Encoded date : UTC 2010-04-19 11:59:50
Tagged date : UTC 2010-04-19 12:09:06

Video
ID : 1
Format : AVC
Format/Info : Advanced Video Codec
Format profile : High@L3.0
Format settings, CABAC : Yes
Format settings, ReFrames : 4 frames
Codec ID : avc1
Codec ID/Info : Advanced Video Coding
Duration : 1mn 19s
Bit rate mode : Variable
Bit rate : 1 249 Kbps
Maximum bit rate : 2 730 Kbps
Width : 720 pixels
Height : 528 pixels
Display aspect ratio : 4:3
Frame rate mode : Constant
Frame rate : 25.000 fps
Standard : PAL
Resolution : 8 bits
Colorimetry : 4:2:0
Scan type : Progressive
Bits/(Pixel*Frame) : 0.131
Stream size : 11.8 MiB (94%)
Language : English
Encoded date : UTC 2010-04-19 11:59:50
Tagged date : UTC 2010-04-19 12:09:06

Audio
ID : 2
Format : AAC
Format/Info : Advanced Audio Codec
Format version : Version 4
Format profile : LC
Format settings, SBR : No
Codec ID : 40
Duration : 1mn 19s
Bit rate mode : Variable
Bit rate : 78.1 Kbps
Maximum bit rate : 83.8 Kbps
Channel(s) : 2 channels
Channel positions : Front: L R
Sampling rate : 48.0 KHz
Stream size : 762 KiB (6%)
Title : Неопределенный
Language : English
Encoded date : UTC 2010-04-19 11:59:50
Tagged date : UTC 2010-04-19 12:09:06

Text
ID : 3
Format : VobSub
Codec ID : subp
Codec ID/Info : The same subtitle format used on DVDs
Bit rate mode : Variable
Stream size : 1.44 KiB (0%)
Title : Неопределенный
Language : English
Encoded date : UTC 2010-04-19 11:59:51
Tagged date : UTC 2010-04-19 12:09:06

Menu
00:00:00.000 : Раздел 1
Качество: DVDRip
Формат: MP4
Видео кодек: H.264
Аудио кодек: AAC
Видео: 720x528 (4:3, pixel shape=square) VBR ~1.25 Mbps
Аудио: LC-AAC 2.0 48 Khz VBR 80 Kbps

Трекер:  [ 26-Ноя-2011 10:18 ]

  

Скачать .torrent

Размер .torrent файла 19 KB


Размер: 969 MB
Хэш (hash) релиза: 9d1d7967b2f2e97befc35adf2a0708d43d02006c

Торренты, похожие на Enigma - Remember The Future скачать торрент

Форум Название Автор Размер S L Добавлен
Электронная музыка ·· Enigma - Remember The Future [2005 г., New Age, DVDRip] _N_ 721790976688 MB 0 0 1340781120

10:12

27-Июн-12

Электронная музыка (video) ·· Enigma - Remember The Future [2001 г., музыка, DVDRip] Galfimbul 725286912692 MB 0 0 1294845898

18:24

12-Янв-11

Электронная музыка (video) ·· Enigma: Remember The Future [Ambient, New Age, DVD5] Galfimbul 38965350403.63 GB 0 0 1294835514

15:31

12-Янв-11

Электронная музыка (video) ·· Enigma - Remember The Future (переиздание) [2005 г., New Age, Ambient, Downtempo, DVD5] Galfimbul 41703034883.88 GB 0 0 1294835447

15:30

12-Янв-11

Еще никто не оставлял запись к записи скачать торрент Enigma - Remember The Future . Будь первым!

!Обратная связь