Скачать через торрент Титания Tytania бесплатно Аниме Все серии на русском torrent

Если у вас наблюдаются проблемы со скриншотами, переходом по ссылками, скачиванием торрентов - проблемы в блокировщике рекламы AdBlock. #хорошегоДня!


Статистика раздачи
Размер:  2.94 GB   |    Зарегистрирован:  4 года 1 месяц   |    .torrent скачан:  27 раз   |   
Раздают:  1  
   
Загрузка...
 
Автор Сообщение

Galfimbul

avatar Galfimbul


Титания / Tytania

Страна: Япония
Год выпуска: 2008 г.
Жанр: Фантастика, Приключения, Космоопера
Тип: TV
Продолжительность: 24 эп, ~25 мин. серия
Субтитры:

Русские субтитры от [RandomRaws] (Перевод: Jenia aka Zub Редактор: AlexMalkavian Перевод песен: Мария Гостюхина)
Украинские субтитры от [UAnime] (Перевод: Наталія Дев''ятко)
Английские субтитры от [ANBU]
Режиссер: Исигуро Нобору
Студия: Artland

Описание: В далёком будущем человечество освоило Вселенную и заселило множество планет. Мир и спокойствие обеспечивает военная мощь Титании – аристократического рода, который держит в страхе остатки свободных королевств и даже императора. Сама Империя существует лишь благодаря боевым кораблям Титании.
Во главе этого рода стоят опытные полководцы и политические деятели. Они привыкли побеждать, поэтому таким ударом для них оказывается неожиданное сопротивление флота маленькой Эурии, которым руководит никому не известный адмирал Фан Хьюлик. И вот на смену недавней стабильности приходит угроза восстаний…

Акцент на политике и военном деле, а также вдумчивое отношение к проблемам власти, свободы и общества придаёт этому сериалу серьёзность и глубину. «Титания» – это космическая опера, где на первом месте не пафос и не битвы огромных кораблей, но дворянская гордость и отвага мятежников, осознание своего долга и выбор судьбы для каждого человека.
Кроме того, следует отметить нетривиальные повороты сюжета, по-настоящему взрослых персонажей и динамику действия, а также дизайн техники, костюмов, зданий.

Качество: BDRip
Тип релиза: Без хардсаба
Формат видео: MKV
Наличие линковки: Нет
Релиз/Автор рипа: Sensetivity-raws
Видео: 1280x720, 23.976 fps, x264(Hi10p) ~2000 kbps
Аудио: JP | AC3 | 48 kHz | 448 kbps | 2ch
GeneralUnique ID : 219192441535735329393157580923368913935 (0xA4E6EDBD8F4B418495F6345D3BEC3C0F)Complete name : F:\RIP\Tytania\Tytania [BDRip 720p]\[Sensetivity-raws] Tytania - 01 [BDRip 1280x720 x264(Hi10p) AC3].mkvFormat : MatroskaFormat version : Version 4 / Version 2File size : 522 MiBDuration : 24mn 31sOverall bit rate : 2 976 KbpsMovie name : Tytania - 01 - Battle at CerberusEncoded date : UTC 2013-08-14 18:07:40Writing application : mkvmerge v6.2.0 (''Promised Land'') built on Apr 28 2013 12:22:01Writing library : libebml v1.3.0 + libmatroska v1.4.0Attachment : Yes

VideoID : 1Format : AVCFormat/Info : Advanced Video CodecFormat profile : High 10@L4.1Format settings, CABAC : YesFormat settings, ReFrames : 8 framesCodec ID : V_MPEG4/ISO/AVCDuration : 24mn 31sBit rate : 2 468 KbpsWidth : 1 280 pixelsHeight : 720 pixelsDisplay aspect ratio : 16:9Frame rate mode : ConstantFrame rate : 23.976 fpsColor space : YUVChroma subsampling : 4:2:0Bit depth : 10 bitsScan type : ProgressiveBits/(Pixel*Frame) : 0.112Stream size : 433 MiB (83%)Title : Sensetivity-rawsWriting library : x264 core 125 r2200 999b753Encoding settings : cabac=1 / ref=8 / deblock=1:0:0 / analyse=0x3:0x113 / me=umh / subme=9 / psy=1 / psy_rd=1.00:0.00 / mixed_ref=1 / me_range=30 / chroma_me=1 / trellis=2 / 8x8dct=1 / cqm=0 / deadzone=21,11 / fast_pskip=1 / chroma_qp_offset=-2 / threads=6 / lookahead_threads=1 / sliced_threads=0 / nr=0 / decimate=1 / interlaced=0 / bluray_compat=0 / constrained_intra=0 / bframes=10 / b_pyramid=2 / b_adapt=2 / b_bias=0 / direct=3 / weightb=1 / open_gop=0 / weightp=2 / keyint=240 / keyint_min=12 / scenecut=40 / intra_refresh=0 / rc_lookahead=40 / rc=crf / mbtree=1 / crf=15.0 / qcomp=0.60 / qpmin=0 / qpmax=81 / qpstep=7 / ip_ratio=1.40 / aq=2:0.60Language : JapaneseDefault : YesForced : No

AudioID : 2Format : AC-3Format/Info : Audio Coding 3Mode extension : CM (complete main)Format settings, Endianness : BigCodec ID : A_AC3Duration : 24mn 31sBit rate mode : ConstantBit rate : 448 KbpsChannel(s) : 2 channelsChannel positions : Front: L RSampling rate : 48.0 KHzBit depth : 16 bitsCompression mode : LossyStream size : 78.6 MiB (15%)Title : AC3 2.0 448 kbpsLanguage : JapaneseDefault : YesForced : No

TextID : 3Format : ASSCodec ID : S_TEXT/ASSCodec ID/Info : Advanced Sub Station AlphaCompression mode : LosslessTitle : ANBULanguage : EnglishDefault : YesForced : No
01. Battle of Cerberus
02. The Four Dukes of Uraniborg
03. Requirements of a Hero
04. Lira''s Determination
05. Admiration and Pride and...
06. Battle of Syracuse System
07. Under the Blaze Flag
08. Two Encounters
09. Small Wind
10. Collapse of Euria
11. Hyulick''s Determination
12. The Infiltration of Emmental
13. The Beginning of the End
14. Storming the Ryutehhi
15. Like A Grain Of Wheat
16. Imminent Counterattack
17. Overpriced Ransom
18. Prison Satellite Chronos
19. The Radmose Case
20. Chronos Assault
21. Chance Meeting on Esthar
22. Prelude of Ambition
23. Desert Rat
24. Honest Old Man
25. Fierce Fighting on Hot Sand
26. End of the Song of the Souls'' Repose (Requiem)


Трекер:  [ 18-Авг-2013 14:32 ]

  

Скачать .torrent

Размер .torrent файла 17 KB


Размер: 2.94 GB
Хэш (hash) релиза: 986b02de3f7411dbbf8305bfa4a10ed3b9725170
Подписка на обновления:

bot

Топик был перенесен в форум Аниме | HD Rips

Перенес Galfimbul

Хотите добавить комментарий к записи скачать торрент Титания Tytania

!Обратная связь