Скачать через торрент музыку Morcheeba - Live on Rototom SunSplash бесплатно без регистрации torrent

Если у вас наблюдаются проблемы со скриншотами, переходом по ссылками, скачиванием торрентов - проблемы в блокировщике рекламы AdBlock. #хорошегоДня!


Статистика раздачи
Размер:  4.92 GB   |    Зарегистрирован:  5 лет 10 месяцев   |    .torrent скачан:  37 раз   |   
Раздают:  1  
   
Загрузка...
 
Автор Сообщение

Galfimbul

avatar Galfimbul


Morcheeba - Live on Rototom SunSplash

Страна: Spain
Жанр: Electronica / Alternative rock / Trip-hop
Продолжительность: 01:20:41
Год выпуска: 2010

Morcheeba — британский музыкальный коллектив, в музыке которого сочетаются такие стили как трип-хоп, ритм-энд-блюз и диско. Образован в 1995 году братьями Полом (в качестве ди-джея) и Россом (клавишник и гитарист) Годфри.
Со времени создания и до 2005 года третьей участницей коллектива была вокалистка Скай Эдвардс, участвовавшая в записи первых четырёх альбомов Morcheeba, а после занявшаяся сольной карьерой.
15 февраля 2010 года было официально объявлено о возвращении в группу вокалистки Скай Эдвардс и воссоздании «золотого» состава группы. 7 июня 2010 г. вышел новый альбом группы «Blood Like Lemonade», записанного в классическом составе.

Доп. информация: http://ru.wikipedia.org/wiki/Morcheeba

Качество: SATRip
Контейнер: MPG
Видео кодек: MPEG2
Аудио кодек: MP2
Видео: MPEG 2, 720x576, 4:3, 8178 kbps, 25 fps
Аудио: MPEG 1 layer 2, 384 Kbps, 48.0 kHz, 2 ch
Complete name : Morcheeba - Rototom 2010.mpg
Format : MPEG-PS
File size : 4.92 GiB
Duration : 1h 20mn
Overall bit rate : 8 736 Kbps
Writing library : encoded by TMPGEnc (ver. 2.524.63.181)

Video
ID : 224 (0xE0)
Format : MPEG Video
Format version : Version 2
Format profile : Main@Main
Format settings, BVOP : Yes
Format settings, Matrix : Default
Format settings, GOP : M=3, N=18
Duration : 1h 20mn
Bit rate mode : Variable
Bit rate : 8 178 Kbps
Nominal bit rate : 9 500 Kbps
Width : 720 pixels
Height : 576 pixels
Display aspect ratio : 4:3
Frame rate : 25.000 fps
Standard : PAL
Color space : YUV
Chroma subsampling : 4:2:0
Bit depth : 8 bits
Scan type : Progressive
Bits/(Pixel*Frame) : 0.789
Stream size : 4.61 GiB (94%)
Writing library : TMPGEnc 2.524.63.181

Audio
ID : 192 (0xC0)
Format : MPEG Audio
Format version : Version 1
Format profile : Layer 2
Duration : 1h 20mn
Bit rate mode : Constant
Bit rate : 384 Kbps
Channel(s) : 2 channels
Sampling rate : 48.0 KHz
Stream size : 222 MiB (4%)


Трекер:  [ 26-Ноя-2011 10:36 ]

  

Скачать .torrent

Размер .torrent файла 25 KB


Размер: 4.92 GB
Хэш (hash) релиза: cc1e3ac84fa49e0b96e03f8fee10fb4258efb0ab

Еще никто не оставлял запись к записи скачать торрент Morcheeba - Live on Rototom SunSplash . Будь первым!

!Обратная связь