Скачать через торрент музыку Hurts - Wonderful Life бесплатно без регистрации torrent

Если у вас наблюдаются проблемы со скриншотами, переходом по ссылками, скачиванием торрентов - проблемы в блокировщике рекламы AdBlock. #хорошегоДня!


Статистика раздачи
Размер:  213 MB   |    Зарегистрирован:  5 лет 10 месяцев   |    .torrent скачан:  26 раз   |   
Раздают:  1  
   
Загрузка...
 
Автор Сообщение

Galfimbul

avatar Galfimbul


Hurts - Wonderful Life

Жанр: UK SynthPop
Продолжительность: 4mn 12s 504ms
Год выпуска: 2010

Описание: Hurts - Wonderful Life (The Video Pool UK August 2010)
Жизнь удивительна

На мосту через Северн* в субботнюю ночь
Сьюзи встречает мужчину своей мечты.
Он говорит, что у него проблемы, и если она не против,
Ему больше не нужно её общество
Они оба что-то чувствуют,
Они смотря друг на друга молча и им все понятно.
Сьюзи берет своего мужчину и крепко сжимает его ладонь,
И слезы в его глазах появляются вместе с первыми каплями дождя

Она говорит:
Не отпускай
Никогда не бросай всё, ведь жизнь такая удивительная
Не отпускай
Никогда не сдавайся, это так замечательно – жить!

Проезжая через город к станции Темпль**,
Он кричит в сторону моря,
И Сьюзи узнает, что ее “малыш” был семейным человеком,
Но мир заставил его встать на колени.

Она прижимает его к стене, и поцелуи обжигают словно пламя,
И внезапно он начинает верить.
Он заключает её в свои объятия и не знает, почему,
Но, кажется, он все начинает понимать

Она говорит:
Не отпускай
Никогда не бросай всё, ведь жизнь такая удивительная
Не отпускай
Никогда не сдавайся, это так замечательно – жить!
Не отпускай
Никогда не бросай всё, ведь жизнь такая удивительная
Не отпускай
Никогда не сдавайся, это так замечательно – жить!

Она говорит:
Не отпускай
Никогда не бросай всё, ведь жизнь такая удивительная
Не отпускай
Никогда не сдавайся, это так замечательно – жить!

Удивительная, замечательная, поразительная жизнь
Удивительная, замечательная, поразительная жизнь

Не отпускай
Не отпускай

*Северн (англ. Severn) — самая длинная река в Великобритании
**Темпль (англ. Temple) — имеется в виду Bristol Temple Meads railway station, железнодорожная станция в г. Бристоль. Действите песни происходит именно в этом городе по заявлению солиста группы Тео Хатчкрафта
Источник: скачано из сети

Качество: DVD (MviD)
Контейнер: VOB
Видео кодек: MPEG2
Аудио кодек: PCM
Видео: MPEG Video at 5 393 Kbps 720 x 576 (1.778) at 25.000 fps
Аудио: PCM at 1 536 Kbps 2 channels, 48.0 KHz
Format : MPEG-PS
File size : 213 MiB
Duration : 4mn 12s
Overall bit rate : 7 070 Kbps
Writing library : http:///

Video
ID : 224 (0xE0)
Format : MPEG Video
Format version : Version 2
Format profile : Main@Main
Format settings, BVOP : Yes
Format settings, Matrix : Default
Format settings, GOP : M=3, N=12
Duration : 4mn 12s
Bit rate mode : Variable
Bit rate : 5 393 Kbps
Nominal bit rate : 7 000 Kbps
Width : 720 pixels
Height : 576 pixels
Display aspect ratio : 16:9
Frame rate : 25.000 fps
Standard : PAL
Color space : YUV
Chroma subsampling : 4:2:0
Bit depth : 8 bits
Scan type : Interlaced
Scan order : Top Field First
Compression mode : Lossy
Bits/(Pixel*Frame) : 0.520
Stream size : 162 MiB (76%)
Writing library : http:///

Audio
ID : 160 (0xA0)
Format : PCM
Format settings, Endianness : Big
Format settings, Sign : Signed
Muxing mode : DVD-Video
Duration : 4mn 12s
Bit rate mode : Constant
Bit rate : 1 536 Kbps
Channel(s) : 2 channels
Channel positions : Front: L R
Sampling rate : 48.0 KHz
Bit depth : 16 bits
Video delay : -80ms
Stream size : 46.2 MiB (22%)


Трекер:  [ 26-Ноя-2011 10:52 ]

  

Скачать .torrent

Размер .torrent файла 17 KB


Размер: 213 MB
Хэш (hash) релиза: ff0065d9be229f3fd93200b25992d6754ea93be3

Торренты, похожие на Hurts - Wonderful Life скачать торрент

Форум Название Автор Размер S L Добавлен
Собственные оцифровки ·· (Synth-pop, Pop Rock) Hurts - Wonderful Life - Vinyl - [16/44] - 2010, FLAC (tracks), lossless AqvaGen 6333199860 MB 0 0 1294848802

19:13

12-Янв-11

Электронная музыка (video) ·· Hurts - Wonderful Life (Live) HD 720p [2010, Electronic, Synthpop, HDTVRip] L 234318000223 MB 0 0 1294848458

19:07

12-Янв-11

Электронная музыка (video) ·· Hurts - Wonderful Life HD 1080p [2010, Synth-pop, HDTVRip] AqvaGen 306179960292 MB 0 0 1294848446

19:07

12-Янв-11

Электронная музыка (video) ·· Hurts - Wonderful life [2010, Synthpop / Electronic, DVDRip] Galfimbul 7866572875 MB 0 0 1294845803

18:23

12-Янв-11

Электронная музыка (video) ·· Hurts - Wonderful life [2010 г.,Еlectronic,Synthpop, SATRip] L 135102468129 MB 0 0 1294845428

18:17

12-Янв-11

Электронная музыка (video) ·· Hurts - Better Than Love; Wonderful Life; Stay; Blood, Tears & Gold; An Interview [2010; UK SynthPop; Web-RemuX] L 477533782455 MB 0 0 1294845450

18:17

12-Янв-11

Еще никто не оставлял запись к записи скачать торрент Hurts - Wonderful Life . Будь первым!

!Обратная связь