Скачать через торрент музыку HURTS - Live Session - MTV Studios, Milano бесплатно без регистрации torrent

Если у вас наблюдаются проблемы со скриншотами, переходом по ссылками, скачиванием торрентов - проблемы в блокировщике рекламы AdBlock. #хорошегоДня!


Статистика раздачи
Размер:  387 MB   |    Зарегистрирован:  5 лет 10 месяцев   |    .torrent скачан:  41 раз   |   
Раздают:  1  
   
Загрузка...
 
Автор Сообщение

Galfimbul

avatar Galfimbul


HURTS - Live Session - MTV Studios, Milano (Italy) - 2010-09-09

Страна: Italy
Жанр: Synthpop
Продолжительность: 00:23:45
Год выпуска: 2010

Описание: Запись выступления HURTS в студии MTV в Милане.
Треклист:
1. Wonderful Life
2. Blood Tears and Gold
3. Confide in Me
4. Stay
5. Illuminated
6. Better Than Love

Качество: SATRip
Контейнер: MPG
Видео кодек: MPEG2
Аудио кодек: MP2
Видео: 544x576 4:3 2278 Kbps 25.000 fps
Аудио: 128 Kbps 48.0 KHz 2 ch
General
Complete name : D:\1\Hurts 2010.09.09 MTV Italy\Hurts 2010.09.09 MTV Italy.mpg
Format : MPEG-PS
File size : 387 MiB
Duration : 23mn 45s
Overall bit rate : 2 278 Kbps

Video
ID : 224 (0xE0)
Format : MPEG Video
Format version : Version 2
Format profile : Main@Main
Format settings, BVOP : Yes
Format settings, Matrix : Default
Format settings, GOP : M=3, N=12
Duration : 23mn 45s
Bit rate mode : Variable
Bit rate : 2 104 Kbps
Nominal bit rate : 15.0 Mbps
Width : 544 pixels
Height : 576 pixels
Display aspect ratio : 4:3
Frame rate : 25.000 fps
Color space : YUV
Chroma subsampling : 4:2:0
Bit depth : 8 bits
Scan type : Interlaced
Scan order : Top Field First
Bits/(Pixel*Frame) : 0.269
Stream size : 358 MiB (92%)

Audio
ID : 192 (0xC0)
Format : MPEG Audio
Format version : Version 1
Format profile : Layer 2
Duration : 23mn 45s
Bit rate mode : Constant
Bit rate : 128 Kbps
Channel(s) : 2 channels
Sampling rate : 48.0 KHz
Video delay : -144ms
Stream size : 21.7 MiB (6%)


Трекер:  [ 26-Ноя-2011 10:54 ]

  

Скачать .torrent

Размер .torrent файла 15 KB


Размер: 387 MB
Хэш (hash) релиза: 9f1aac208a63f215698dda7843dc09012ed9a8ec

Еще никто не оставлял запись к записи скачать торрент HURTS - Live Session - MTV Studios, Milano . Будь первым!

!Обратная связь