Скачать через торрент музыку Hurts - Better Than Love; Wonderful Life; Stay; Blood, Tears & Gold; An Interview бесплатно без регистрации torrent

Если у вас наблюдаются проблемы со скриншотами, переходом по ссылками, скачиванием торрентов - проблемы в блокировщике рекламы AdBlock. #хорошегоДня!


Статистика раздачи
Размер:  455 MB   |    Зарегистрирован:  6 лет 2 месяца   |    .torrent скачан:  35 раз   |   
Раздают:  1  
   
Загрузка...
 
Автор Сообщение

L


Hurts


Страна: Manchester, England, United Kingdom
Жанр: Synthpop, Electropop, New Wave, Disco Lento
Members: Theo Hutchcraft & Adam Anderson

WebNetwork
01 Hurts - Better Than Love 2010
Format : Flash Video
File size : 43.2 MiB
Duration : 4mn 22s
Overall bit rate : 1 383 Kbps
Encoded date : Wed Apr 28 06:09:41 2010

Video
Format : VP6
Duration : 4mn 22s
Bit rate : 1 224 Kbps
Width : 848 pixels
Height : 476 pixels
Display aspect ratio : 16:9
Frame rate mode : Constant
Frame rate : 25.000 fps
Bits/(Pixel*Frame) : 0.121
Stream size : 38.2 MiB (88%)

Audio
Format : MPEG Audio
Format version : Version 2
Format profile : Layer 3
Mode : Joint stereo
Mode extension : MS Stereo
Duration : 4mn 22s
Bit rate mode : Constant
Bit rate : 96.0 Kbps
Channel(s) : 2 channels
Sampling rate : 22.05 KHz
Bit depth : 16 bits
Stream size : 3.00 MiB (7%)
Writing library : LAME3.97 (beta)
02 Hurts - Wonderful Life 2010
Format : MPEG-4
Format profile : Base Media / Version 2
Codec ID : mp42
File size : 43.8 MiB
Duration : 4mn 13s
Overall bit rate : 1 451 Kbps
Encoded date : UTC 2010-07-26 18:56:09
Tagged date : UTC 2010-07-26 18:59:13
Writing application : HandBrake 0.9.4 2009112300

Video
ID : 1
Format : AVC
Format/Info : Advanced Video Codec
Format profile : High@L3.0
Format settings, CABAC : Yes
Format settings, ReFrames : 3 frames
Codec ID : avc1
Codec ID/Info : Advanced Video Coding
Duration : 4mn 13s
Bit rate mode : Variable
Bit rate : 1 300 Kbps
Width : 848 pixels
Height : 476 pixels
Display aspect ratio : 16:9
Frame rate mode : Constant
Frame rate : 25.000 fps
Color space : YUV
Chroma subsampling : 4:2:0
Bit depth : 8 bits
Scan type : Progressive
Bits/(Pixel*Frame) : 0.129
Stream size : 40.9 MiB (93%)
Writing library : x264 core 79
Encoding settings : cabac=1 / ref=3 / deblock=1:0:0 / analyse=0x3:0x113 / me=hex / subme=7 / psy=1 / psy_rd=1.0:0.0 / mixed_ref=1 / me_range=16 / chroma_me=1 / trellis=1 / 8x8dct=1 / cqm=0 / deadzone=21,11 / chroma_qp_offset=-2 / threads=12 / nr=0 / decimate=1 / mbaff=0 / constrained_intra=0 / bframes=3 / b_pyramid=0 / b_adapt=1 / b_bias=0 / direct=1 / wpredb=1 / wpredp=2 / keyint=250 / keyint_min=25 / scenecut=40 / rc_lookahead=40 / rc=abr / mbtree=1 / bitrate=1300 / ratetol=1.0 / qcomp=0.60 / qpmin=10 / qpmax=51 / qpstep=4 / ip_ratio=1.40 / aq=1:1.00
Encoded date : UTC 2010-07-26 18:56:09
Tagged date : UTC 2010-07-26 18:59:13
Color primaries : BT.709-5, BT.1361, IEC 61966-2-4, SMPTE RP177
Transfer characteristics : BT.709-5, BT.1361
Matrix coefficients : BT.709-5, BT.1361, IEC 61966-2-4 709, SMPTE RP177

Audio
ID : 2
Format : AAC
Format/Info : Advanced Audio Codec
Format version : Version 4
Format profile : LC
Format settings, SBR : No
Codec ID : 40
Duration : 4mn 13s
Bit rate mode : Variable
Bit rate : 92.7 Kbps
Maximum bit rate : 117 Kbps
Channel(s) : 2 channels
Channel positions : Front: L R
Sampling rate : 44.1 KHz
Stream size : 2.80 MiB (6%)
Language : English
Encoded date : UTC 2010-07-26 18:56:09
Tagged date : UTC 2010-07-26 18:59:13
03 An Interview with Hurts performances of Better Than Love,Wonderful Life,Stay (18.05.2010)
Format : Flash Video
File size : 109 MiB
Duration : 10mn 59s
Overall bit rate : 1 391 Kbps
Encoded date : Tue May 18 06:41:50 2010

Video
Format : VP6
Duration : 10mn 59s
Bit rate : 1 231 Kbps
Width : 848 pixels
Height : 476 pixels
Display aspect ratio : 16:9
Frame rate mode : Constant
Frame rate : 25.000 fps
Bits/(Pixel*Frame) : 0.122
Stream size : 96.9 MiB (89%)

Audio
Format : MPEG Audio
Format version : Version 2
Format profile : Layer 3
Mode : Joint stereo
Mode extension : MS Stereo
Duration : 10mn 59s
Bit rate mode : Constant
Bit rate : 96.0 Kbps
Channel(s) : 2 channels
Sampling rate : 22.05 KHz
Bit depth : 16 bits
Stream size : 7.55 MiB (7%)
Writing library : LAME3.9

04 Hurts - Stay 2010
Format : MPEG-4
Format profile : Base Media
Codec ID : isom
File size : 44.7 MiB
Duration : 4mn 19s
Overall bit rate : 1 447 Kbps
Encoded date : UTC 2010-11-15 21:15:55
Tagged date : UTC 2010-11-15 21:15:55

Video
ID : 1
Format : AVC
Format/Info : Advanced Video Codec
Format profile : High@L3.1
Format settings, CABAC : Yes
Format settings, ReFrames : 8 frames
Codec ID : avc1
Codec ID/Info : Advanced Video Coding
Duration : 4mn 19s
Bit rate mode : Variable
Bit rate : 1 350 Kbps
Maximum bit rate : 3 313 Kbps
Width : 720 pixels
Height : 408 pixels
Display aspect ratio : 16:9
Frame rate mode : Constant
Frame rate : 25.000 fps
Color space : YUV
Chroma subsampling : 4:2:0
Bit depth : 8 bits
Scan type : Progressive
Bits/(Pixel*Frame) : 0.184
Stream size : 40.8 MiB (91%)
Title : Imported with GPAC 0.4.6-DEV (build 1)
Writing library : x264 core 92 r1510 33d382a
Encoding settings : cabac=1 / ref=8 / deblock=1:-1:-1 / analyse=0x3:0x133 / me=umh / subme=7 / psy=1 / psy_rd=1.00:0.10 / mixed_ref=1 / me_range=16 / chroma_me=1 / trellis=2 / 8x8dct=1 / cqm=0 / deadzone=21,11 / fast_pskip=0 / chroma_qp_offset=-3 / threads=3 / sliced_threads=0 / nr=0 / decimate=1 / interlaced=0 / constrained_intra=0 / bframes=3 / b_pyramid=2 / b_adapt=2 / b_bias=0 / direct=1 / wpredb=1 / wpredp=2 / keyint=250 / keyint_min=25 / scenecut=40 / intra_refresh=0 / rc_lookahead=50 / rc=abr / mbtree=1 / bitrate=1350 / ratetol=1.0 / qcomp=0.60 / qpmin=10 / qpmax=51 / qpstep=4 / ip_ratio=1.40 / aq=1:1.00
Encoded date : UTC 2010-11-15 21:15:55
Tagged date : UTC 2010-11-15 21:15:55

Audio
ID : 2
Format : AAC
Format/Info : Advanced Audio Codec
Format version : Version 4
Format profile : LC
Format settings, SBR : No
Codec ID : 40
Duration : 4mn 19s
Bit rate mode : Variable
Bit rate : 123 Kbps
Maximum bit rate : 160 Kbps
Channel(s) : 2 channels
Channel positions : Front: L R
Sampling rate : 44.1 KHz
Stream size : 3.81 MiB (9%)
Title : Imported with GPAC 0.4.6-DEV (build 1)
Encoded date : UTC 2010-11-15 21:15:55
Tagged date : UTC 2010-11-15 21:15:55
05 Hurts - Blood,Tears & Gold 2010
Format : MPEG-4
Format profile : Base Media
Codec ID : isom
File size : 48.9 MiB
Duration : 4mn 34s
Overall bit rate : 1 493 Kbps
Encoded date : UTC 2010-11-15 22:04:30
Tagged date : UTC 2010-11-15 22:04:30

Video
ID : 1
Format : AVC
Format/Info : Advanced Video Codec
Format profile : High@L3.1
Format settings, CABAC : Yes
Format settings, ReFrames : 8 frames
Codec ID : avc1
Codec ID/Info : Advanced Video Coding
Duration : 4mn 34s
Bit rate mode : Variable
Bit rate : 1 350 Kbps
Maximum bit rate : 3 859 Kbps
Width : 720 pixels
Height : 408 pixels
Display aspect ratio : 16:9
Frame rate mode : Constant
Frame rate : 30.000 fps
Color space : YUV
Chroma subsampling : 4:2:0
Bit depth : 8 bits
Scan type : Progressive
Bits/(Pixel*Frame) : 0.153
Stream size : 44.6 MiB (91%)
Title : Imported with GPAC 0.4.6-DEV (build 1)
Writing library : x264 core 92 r1510 33d382a
Encoding settings : cabac=1 / ref=8 / deblock=1:-1:-1 / analyse=0x3:0x133 / me=umh / subme=7 / psy=1 / psy_rd=1.00:0.10 / mixed_ref=1 / me_range=16 / chroma_me=1 / trellis=2 / 8x8dct=1 / cqm=0 / deadzone=21,11 / fast_pskip=0 / chroma_qp_offset=-3 / threads=3 / sliced_threads=0 / nr=0 / decimate=1 / interlaced=0 / constrained_intra=0 / bframes=3 / b_pyramid=2 / b_adapt=2 / b_bias=0 / direct=1 / wpredb=1 / wpredp=2 / keyint=250 / keyint_min=25 / scenecut=40 / intra_refresh=0 / rc_lookahead=50 / rc=abr / mbtree=1 / bitrate=1350 / ratetol=1.0 / qcomp=0.60 / qpmin=10 / qpmax=51 / qpstep=4 / ip_ratio=1.40 / aq=1:1.00
Encoded date : UTC 2010-11-15 22:04:30
Tagged date : UTC 2010-11-15 22:04:31

Audio
ID : 2
Format : MPEG Audio
Format version : Version 1
Format profile : Layer 3
Mode : Joint stereo
Mode extension : MS Stereo
Codec ID : 6B
Duration : 4mn 34s
Bit rate mode : Constant
Bit rate : 128 Kbps
Maximum bit rate : 134 Kbps
Channel(s) : 2 channels
Sampling rate : 44.1 KHz
Stream size : 4.20 MiB (9%)
Title : Imported with GPAC 0.4.6-DEV (build 1)
Writing library : LAME3.96.1
Encoded date : UTC 2010-11-15 22:04:31
Tagged date : UTC 2010-11-15 22:04:31
CDA: Hurts - 2010 - Happiness
01 Hurts-Better_Than_Love-web-x264-2010-Vayper.
The Scene Relise: 16.11.2010
Качество: WEB-RemuX
Контейнер: Matroska at 2 695 Kbps
Продолжительность: 84.2 MiB for 4mn 22s 240ms
Видео кодек: x264
Аудио кодек: PCM
Видео: AVC 1 224 Kbps 720 x 400 (1.800) at 25.000 fps
Аудио: PCM at 1 411.2 Kbps 2 channels, 44.1 KHz
02 Hurts-Wonderful_Life-web-x264-2010-Vayper
The Scene Relise: 16.11.2010
Качество: WEB-RemuX
Контейнер: Matroska at 2 743 Kbps
Продолжительность: 83.5 MiB for 4mn 15s 306ms
Видео кодек: x264
Аудио кодек: PCM
Видео: AVC 1 300 Kbps 720 x 400 (1.800) at 25.000 fps
Аудио: PCM at 1 411.2 Kbps 2 channels, 44.1 KHz
03 An Interview with Hurts, with performances of Better Than Love, Wonderful Life, Stay (18.05.2010)-web-x264-2010-Vayper
The Scene Relise: 16.11.2010
Качество: WEB-RemuX
Контейнер: MPEG-4 at 1 428 Kbps
Продолжительность: 112 MiB for 11mn 0s 0ms
Видео кодек: x264
Аудио кодек: MP3
Видео: AVC at 1 350 Kbps 720 x 400 (1.800) at 25.000 fps
Аудио: MPEG Audio at 96.0-100 Kbps 2 channels, 22.05 KHz
04 Hurts-Stay-web-x264-2010-Vayper
The Scene Relise: 16.11.2010
Качество: WEB-RemuX
Контейнер: Matroska at 2 732 Kbps
Продолжительность: 84.4 MiB for 4mn 19s 240ms
Видео кодек: x264
Аудио кодек: PCM
Видео: AVC at 1 350 Kbps 720 x 408 (1.765) at 25.000 fps
Аудио: PCM at 1 411.2 Kbps 2 channels, 44.1 KHz
05 Hurts-Blood,Tears_&_Gold-web-x264-2010-Vayper
The Scene Relise: 16.11.2010
Качество: WEB-RemuX
Контейнер: Matroska at 2 774 Kbps
Продолжительность: 90.9 MiB for 4mn 34s 961ms
Видео кодек: x264
Аудио кодек: PCM
Видео: AVC at 1 350 Kbps 720 x 408 (1.765) at 30.000 fps
Аудио: PCM at 1 411.2 Kbps 2 channels, 44.1 KHz


Трекер:  [ 28-Июл-2011 21:10 ]

  

Скачать .torrent

Размер .torrent файла 18 KB


Размер: 455 MB
Хэш (hash) релиза: 92ab15a55fcff58b2315d8dd38335b132d150119

Еще никто не оставлял запись к записи скачать торрент Hurts - Better Than Love; Wonderful Life; Stay; Blood, Tears & Gold; An Interview . Будь первым!

!Обратная связь