Скачать через торрент музыку Daft Punk - Derezzed бесплатно без регистрации torrent

Если у вас наблюдаются проблемы со скриншотами, переходом по ссылками, скачиванием торрентов - проблемы в блокировщике рекламы AdBlock. #хорошегоДня!


Статистика раздачи
Размер:  137 MB   |    Зарегистрирован:  6 лет 2 месяца   |    .torrent скачан:  36 раз   |   
Раздают:  1  
   
Загрузка...
 
Автор Сообщение

L


Daft Punk - Derezzed (From The Tron Legacy OST)

Жанр: Electro-House
Продолжительность: 2mn 51s 960ms
Год выпуска: 2010

The official Daft Punk music video for Derezzed, the first single off the Tron Legacy Soundtrack.

MTV: on.mtv.com/ fnLMkb
on.mtv.com/ fgJBtt
GIZMODO: gizmo.do/ fBcIoK
IDOLATOR: bit.ly/ e03cY4

Artist: Daft Punk
Track: Derezzed
Record Label: Walt Disney Records
Video Commissioner: Glen Lajeski
Production Company: Partizan
Director: Warren Fu
Producer: Ross Girard
Cinematographer: Ketil Dietrichson
Production Designer: Eric Archer
Editor: Ryan McKenna
Post & VFX: The Mill
Sound Design: Gus Koven
VFX Concept & Design: Warren Fu
VFX Producer: Zu Alkadiri
Executive Producer: Jeff Pantaleo
Daft Punk - Derezzed (From The Tron Legacy OST).vob
From DVD: Vip-Express Videos December 2010
Format : MPEG-PS
File size : 198 MiB
Duration : 2mn 51s
Overall bit rate : 9 671 Kbps
Writing library : http://vip-files.net

Video
ID : 224 (0xE0)
Format : MPEG Video
Format version : Version 2
Format profile : Main@Main
Format settings, BVOP : Yes
Format settings, Matrix : Default
Format settings, GOP : M=3, N=13
Duration : 2mn 51s
Bit rate mode : Constant
Bit rate : 8 000 Kbps
Width : 720 pixels
Height : 576 pixels
Display aspect ratio : 16:9
Frame rate : 25.000 fps
Standard : PAL
Color space : YUV
Chroma subsampling : 4:2:0
Bit depth : 8 bits
Scan type : Progressive
Compression mode : Lossy
Bits/(Pixel*Frame) : 0.772
Stream size : 163 MiB (82%)
Writing library : http://vip-files.net

Audio
ID : 160 (0xA0)
Format : PCM
Format settings, Endianness : Big
Format settings, Sign : Signed
Muxing mode : DVD-Video
Duration : 2mn 51s
Bit rate mode : Constant
Bit rate : 1 536 Kbps
Channel(s) : 2 channels
Channel positions : Front: L R
Sampling rate : 48.0 KHz
Bit depth : 16 bits
Stream size : 31.5 MiB (16%)
Естественно, всем должно быть известно, что все релизы так называемых "DVD" линейки типа
From DVD: Vip-Express Videos December 2010
Не что иное как загнанные для платной скачки с вип-сервиса различные файлы. Отобранные по тендеру файлы конвертируются ими в максимальны постоянный битрейт 8000, выставляется звук LPCM.
Но надо отдать должное, что для этих Vip-Express подбираются действительно качественные исходники в отношении видео дорожки. Звук как и всегда перегоняют в LPCM тот что и был (спектр исходника 192 Kbps).
Поэтому нарекать такой рип файлом DVD несколько некорректно, и расширение ему положено mpg.
Данный исходник для Vip-Express однозначно не YouTube Rip, где присутствуют логотипы и надписи
http://www.youtube.com/watch?v=_6Afc2uzw4g
На файле от Vip-Express звук заменен на подобающий столь знаменательному клипу (спектр at Скриншоты).
С выходом файла от Promo Only, качество этого файла будет неоспоримо выше, как по звуку (Обычно у РО апконверт по звуку как и у Vip-Express), так и по видеоряду (широкий экран 1024 x 576), в то время как снятое качественное видео в широком экране у РО будет с 50% черных полей в размере 640 х 480.
Качество: HDRip
Контейнер: MPG
Видео кодек: MPEG2
Аудио кодек: PCM
Видео: MPEG Video at 5 004 Kbps 720 x 576 (1.778) at 25.000 fps
Аудио: PCM at 1 536 Kbps 2 channels, 48.0 KHz
Format : MPEG-4
Format profile : Base Media / Version 2
Codec ID : mp42
File size : 60.3 MiB
Duration : 2mn 56s
Overall bit rate : 2 866 Kbps
Encoded date : UTC 2010-12-07 03:08:52
Tagged date : UTC 2010-12-07 03:08:52
gsst : 0
gstd : 176338
gssd : BADC21241HH1292865309055210
gshh : v11.lscache1.c.youtube.com

Video
ID : 1
Format : AVC
Format/Info : Advanced Video Codec
Format profile : High@L4.0
Format settings, CABAC : Yes
Format settings, ReFrames : 1 frame
Codec ID : avc1
Codec ID/Info : Advanced Video Coding
Duration : 2mn 56s
Bit rate mode : Variable
Bit rate : 2 736 Kbps
Maximum bit rate : 9 849 Kbps
Width : 1 920 pixels
Height : 1 080 pixels
Display aspect ratio : 16:9
Frame rate mode : Variable
Frame rate : 23.976 fps
Minimum frame rate : 17.241 fps
Maximum frame rate : 24.390 fps
Color space : YUV
Chroma subsampling : 4:2:0
Bit depth : 8 bits
Scan type : Progressive
Bits/(Pixel*Frame) : 0.055
Stream size : 57.5 MiB (95%)
Tagged date : UTC 2010-12-07 03:08:57

Audio
ID : 2
Format : AAC
Format/Info : Advanced Audio Codec
Format profile : LC
Codec ID : 40
Duration : 2mn 56s
Bit rate mode : Variable
Bit rate : 124 Kbps
Maximum bit rate : 154 Kbps
Channel(s) : 2 channels
Channel positions : Front: L R
Sampling rate : 44.1 KHz
Compression mode : Lossy
Stream size : 2.62 MiB (4%)
Title : (C) 2007 Google Inc. v08.13.2007.
Encoded date : UTC 2010-12-07 03:08:54
Tagged date : UTC 2010-12-07 03:08:57
Daft_Punk-Derezzed-CONVERT-x264-2010-FRAY SATRIP

Release Date : 24 December 2010 (GMT)
Video Source : DVB
Audio Source : DVB
Deinterlace Method : Deinterlace Filter
Video Bit Rate : 1 755 Kbps
Encoded Resolution : 688x560
Display Aspect Ratio : 1.778
Audio Format : MP2
Audio Bitrate : 192 Kbps
Sampling rate : 48.0 KHz
Channel(s) : 2 channels
File Size : 40.45Mb
Play Time : 2mn 50s


Трекер:  [ 28-Июл-2011 20:20 ]

  

Скачать .torrent

Размер .torrent файла 11 KB


Размер: 137 MB
Хэш (hash) релиза: c897801c179a512fa29976ed369e07a7506e133a

Еще никто не оставлял запись к записи скачать торрент Daft Punk - Derezzed . Будь первым!

!Обратная связь