Скачать порно через торрент Geki Kyawa - Sex Lesson with Senpai! Уроки секса c Geki Kyawa UnionPeer.org бесплатно онлайн HD качество

Скачать новое порно 2015, 2014 новинки через торрент UnionPeer.org

Порно торрент бесплатно ЮнионПир.орг

Если у вас наблюдаются проблемы со скриншотами, переходом по ссылками, скачиванием торрентов - проблемы в блокировщике рекламы AdBlock. #хорошегоДня!


Статистика раздачи
Размер:  476 MB   |    Зарегистрирован:  4 года   |    .torrent скачан:  267 раз   |   
Раздают:  2  
   
Загрузка...
 
Автор Сообщение

LinGr

avatar LinGr


Geki Kyawa - Sex Lesson with Senpai! / 激キャワ★先輩とSEXレッスン! / Уроки секса c Geki Kyawa
Год производства: 2013 г.
Reslese 2013/08/02
Жанр: Romance, Internal Cumshot, Blowjob
Серии: 1
Продолжительность: 22:20
Цензура: Есть во всех файлах

Язык: Японский
Озвучка: Оригинальная
Студия: Sacuregern
DLLsite
Описание:
I'm getting a sex lesson from my easily persuaded super-kawaii senpai!
She took the lead in taking my virginity, but
"Th, this is... bad... I'm so sens-i-tiiiiive......aah!"
She gets so aroused in the process......
"It's...... s, so good...... your pe-penis, it feels too good.....!"
When I cum deep inside her velvety smooth vulva she clings to me in climactic spasms!
"I'm gonna cum I'm gonna cum right nnyyyaaAAAAAHHH.....!!"
Sperm squeezes out her pulsating p*ssy while we orgasm together!

Качество видео: GameRip
Формат видео: WMV
Видео кодек: Windows Media
Аудио кодек: WMA
Видео: Windows Media Video 9 800x600 30fps 3507kbps [Raw Video 1]
Аудио 1: WMA 2 44100Hz stereo 160kbps [Raw Audio 0]

Video
ID : 2
Format : VC-1
Format profile : MP@HL
Codec ID : WMV3
Codec ID/Info : Windows Media Video 9
Codec ID/Hint : WMV3
Description of the codec : Windows Media Video 9 - Professional
Duration : 22mn 20s
Bit rate mode : Constant
Bit rate : 3 507 Kbps
Width : 800 pixels
Height : 600 pixels
Display aspect ratio : 4:3
Frame rate : 30.000 fps
Bit depth : 8 bits
Scan type : Progressive
Compression mode : Lossy
Bits/(Pixel*Frame) : 0.244
Stream size : 560 MiB
Language : Japanese
NumberOfFrames : 23062

Audio
ID : 1
Format : WMA
Format version : Version 2
Codec ID : 161
Codec ID/Info : Windows Media Audio
Description of the codec : Windows Media Audio 9 - 160 kbps, 44 kHz, stereo (A/V) 1-pass CBR
Duration : 22mn 20s
Bit rate mode : Constant
Bit rate : 160 Kbps
Channel(s) : 2 channels
Sampling rate : 44.1 KHz
Bit depth : 16 bits
Stream size : 25.6 MiB (5%)


Трекер:  [ 12-Авг-2013 15:15 ]

  

Скачать .torrent

Размер .torrent файла 19 KB


Размер: 476 MB
Хэш (hash) релиза: d99f0aca12751c91e88770f6e3da79673ba701da

bot

Топик был перенесен в форум Хентай | С цензурой

Перенес LinGr

Хотите добавить комментарий к записи скачать торрент Geki Kyawa - Sex Lesson with Senpai! Уроки секса c Geki Kyawa

!Обратная связь