Скачать порно через торрент Vivid Ishikki At The Beach Яркие Ishikki на пляже UnionPeer.org бесплатно онлайн HD качество

Скачать новое порно 2015, 2014 новинки через торрент UnionPeer.org

Порно торрент бесплатно ЮнионПир.орг

Если у вас наблюдаются проблемы со скриншотами, переходом по ссылками, скачиванием торрентов - проблемы в блокировщике рекламы AdBlock. #хорошегоДня!


Статистика раздачи
Размер:  218 MB   |    Зарегистрирован:  4 года 2 месяца   |    .torrent скачан:  248 раз   |   
Раздают:  1  
   
Загрузка...
 
Автор Сообщение

LinGr

avatar LinGr


Vivid Ishikki At The Beach / ビビッと一色 海水浴 / Яркие Ishikki на пляже
Год производства: 2013 г.
Reslese 2013/06/31
Жанр: Uniform, Internal Cumshot, Golden Shower/Urination Anal
Серии: 1
Продолжительность: 17:26
Цензура: Есть во всех файлах

Язык: Японский
Озвучка: Оригинальная
Студия:@OZ | DLLsite|



Описание: Celebrate beauty with full access to various play from various angles.
You'll fall in love when you see little sister-like Isshiki have multiple orgasms via caress,
oral sex (both giving and receiving), missionary, lotus and anal sex scenes.

Доп. информация: Interact with a cumshot finish, and control the speed of scene with a button press
* Costume customization: school uniform or sporty bikini!
* Realistic sound effects, liquid expression
* Voiced by Aya Asazuki, who performs more dirty talk than ever!
Качество видео: GameRip
Формат видео: WMV
Видео кодек: Windows Media
Аудио кодек: WMA
Видео: Windows Media Video 9 856x480 30fps 1287kbps [Raw Video 0]
Аудио 1: WMA Pro 44100Hz stereo 440kbps [Raw Audio 1]

Video
ID : 1
Format : VC-1
Format profile : MP@HL
Codec ID : WMV3
Codec ID/Info : Windows Media Video 9
Codec ID/Hint : WMV3
Description of the codec : Windows Media Video 9
Duration : 17mn 26s
Bit rate mode : Variable
Bit rate : 1 288 Kbps
Width : 856 pixels
Height : 480 pixels
Display aspect ratio : 16:9
Frame rate : 30.000 fps
Bit depth : 8 bits
Scan type : Progressive
Compression mode : Lossy
Bits/(Pixel*Frame) : 0.104
Stream size : 161 MiB (74%)
Language : Latvian

Audio
ID : 2
Format : WMA
Format profile : Pro
Codec ID : 162
Codec ID/Info : Windows Media Audio
Description of the codec : Windows Media Audio 10 Professional - 440 kbps, 44 kHz, 2 channel 24 bit (A/V) 1-pass CBR
Duration : 17mn 26s
Bit rate mode : Constant
Bit rate : 440 Kbps
Channel(s) : 2 channels
Sampling rate : 44.1 KHz
Bit depth : 24 bits
Stream size : 54.9 MiB (25%)


Трекер:  [ 12-Авг-2013 15:15 ]

  

Скачать .torrent

Размер .torrent файла 17 KB


Размер: 218 MB
Хэш (hash) релиза: fce3f36d7e690ee20464a582f9c985609ada62b3

bot

Топик был перенесен в форум Хентай | С цензурой

Перенес LinGr

Хотите добавить комментарий к записи скачать торрент Vivid Ishikki At The Beach Яркие Ishikki на пляже

!Обратная связь