Скачать через торрент Ван Пис: Остров Мечты One Piece Film Z Special: Glorious Island бесплатно Аниме Все серии на русском torrent

Если у вас наблюдаются проблемы со скриншотами, переходом по ссылками, скачиванием торрентов - проблемы в блокировщике рекламы AdBlock. #хорошегоДня!


Статистика раздачи
Размер:  270 MB   |    Зарегистрирован:  4 года   |    .torrent скачан:  38 раз   |   
Раздают:  1  
   
Загрузка...
 
Автор Сообщение

Galfimbul

avatar Galfimbul


Ван Пис: Остров Мечты / One Piece Film Z Special: Glorious Island / Guroriasu Airando
Страна: Япония
Год выпуска: 2012 г.
Жанр: приключения, комедия, фэнтези
Тип: Special
Продолжительность: 11 мин.
Режиссер: Eiichiro Oda
Студия:
Описание: Спешал показывает нам Мугивар отдыхающих на Санни. Так же показано начало сакура-пати, с которой начинается Фильм Z.
Качество: DVDRip
Тип релиза: Без хардсаба
Формат видео: MP4
Релиз/Автор рипа: SOFCJ-Raws
Видео: MPEG4 Video (x264); 848x480; 29.97fps; 2932kbps; 8 bits.
Аудио: AC3; 48KHz; 2 channels; 384kbps; Язык: Японский
Субтитры: ASS; внешние (перевод: Шамов Дмитрий и Horodep); Язык: Русский
Format : MPEG-4Format profile : Base MediaCodec ID : isomFile size : 270 MiBDuration : 11mn 10sOverall bit rate : 3 378 KbpsEncoded date : UTC 2013-07-01 07:16:17Tagged date : UTC 2013-07-01 07:16:17

VideoID : 1Format : AVCFormat/Info : Advanced Video CodecFormat profile : High@L3.1Format settings, CABAC : YesFormat settings, ReFrames : 6 framesCodec ID : avc1Codec ID/Info : Advanced Video CodingDuration : 11mn 10sBit rate : 2 932 KbpsMaximum bit rate : 12.1 MbpsWidth : 848 pixelsHeight : 480 pixelsDisplay aspect ratio : 16:9Frame rate mode : ConstantFrame rate : 29.970 fpsColor space : YUVChroma subsampling : 4:2:0Bit depth : 8 bitsScan type : ProgressiveBits/(Pixel*Frame) : 0.240Stream size : 239 MiB (89%)Writing library : x264 core 133 r2334+704+50 a7549b7 tMod [8-bit@all X86]Encoding settings : cabac=1 / ref=6 / deblock=1:0:0 / analyse=0x3:0x133 / me=umh / subme=7 / psy=1 /fade_compensate=0.00 / psy_rd=0.40:0.00 / mixed_ref=1 / me_range=16 / chroma_me=1 / trellis=2 / 8x8dct=1 / cqm=0 /deadzone=21,11 / fast_pskip=0 / chroma_qp_offset=-2 / threads=3 / lookahead_threads=1 / sliced_threads=0 / nr=0 /decimate=1 / interlaced=0 / bluray_compat=0 / constrained_intra=0 / fgo=0 / bframes=14 / b_pyramid=2 / b_adapt=1 /b_bias=0 / direct=1 / weightb=0 / open_gop=0 / weightp=2 / keyint=250 / keyint_min=25 / scenecut=40 / intra_refresh=0 /rc_lookahead=50 / rc=abr / mbtree=1 / bitrate=2932 / ratetol=1.0 / qcomp=0.70 / qpmin=0 / qpmax=69 / qpstep=4 /ip_ratio=1.40 / aq=1:0.60 / aq-sensitivity=10.00 / aq-factor=1.00:1.00:1.00 / aq2=0 / aq3=0Encoded date : UTC 2013-07-01 07:16:17Tagged date : UTC 2013-07-01 07:16:22Color primaries : BT.709Transfer characteristics : BT.709Matrix coefficients : BT.709

AudioID : 2Format : AC-3Format/Info : Audio Coding 3Mode extension : CM (complete main)Format settings, Endianness : BigCodec ID : ac-3Duration : 11mn 10sBit rate mode : ConstantBit rate : 384 KbpsChannel(s) : 2 channelsChannel positions : Front: L RSampling rate : 48.0 KHzBit depth : 16 bitsCompression mode : LossyDelay relative to video : 67msStream size : 30.7 MiB (11%)Encoded date : UTC 2013-07-01 07:16:21Tagged date : UTC 2013-07-01 07:16:22


Трекер:  [ 10-Авг-2013 18:24 ]

  

Скачать .torrent

Размер .torrent файла 11 KB


Размер: 270 MB
Хэш (hash) релиза: 832c125d0b44601bc9ea979482064158a72c62be
Подписка на обновления:

bot

Топик был перенесен из форума Аниме (Rip) в форум Ван-Пис | One Piece

Galfimbul

Хотите добавить комментарий к записи скачать торрент Ван Пис: Остров Мечты One Piece Film Z Special: Glorious Island

!Обратная связь