Скачать через торрент музыку Элизиум Elysium бесплатно без регистрации torrent

Если у вас наблюдаются проблемы со скриншотами, переходом по ссылками, скачиванием торрентов - проблемы в блокировщике рекламы AdBlock. #хорошегоДня!


Статистика раздачи
Размер:  356 MB   |    Зарегистрирован:  4 года   |    .torrent скачан:  32 раза   |   
Раздают:  1  
   
Загрузка...
 
Автор Сообщение

Polarnik

avatar Polarnik


Элизиум / Elysium


Жанр: Score || Композитор: Ryan Amon || Год выпуска диска: 2013 || Страна-производитель диска: США || Аудио кодек: FLAC (*.flac) || Тип рипа: tracks+.cue || Битрейт аудио: lossless || Продолжительность: 01:11:26 || Источник: What.cd (nazgul68) || Наличие сканов в содержимом раздачи: да
Треклист:
01. Heaven and Earth [04:25]
02. Fire Up The Shuttle [01:46]
03. Unauthorized Entry [04:36]
04. Deportation [01:55]
05. Darkness [04:50]
06. Things to Come [04:37]
07. You Said You''d Do Anything [03:31]
08. A Political Sickness [03:49]
09. Arming Projectile [01:26]
11. I''d Like Them Dead [01:23]
12. You Have No Idea [02:12]
13. The Raven [01:58]
14. Let The Girls Out [02:08]
15. I Don''t Want to Die [01:36]
16. Matilda [02:54]
17. Step Aboard [02:55]
18. Heading to Elysium [01:55]
19. Keep Them Busy [00:54]
20. When He Wakes Up [01:40]
21. We Do The Hanging [01:07]
22. Kruger Suits Up [02:26]
23. The Armory [00:59]
24. I''m Right Behind You [02:26]
25. Fire and Water [01:52]
26. The Gantry [01:09]
27. Breaking a Promise [03:19]
28. Elysium [03:46]
29. New Heaven, New Earth [02:22]
Exact Audio Copy V1.0 beta 3 from 29. August 2011

EAC extraction logfile from 6. August 2013, 12:31

Ryan Amon / Elysium

Used drive : HL-DT-STBD-RE BH10LS38 Adapter: 2 ID: 0

Read mode : SecureUtilize accurate stream : YesDefeat audio cache : YesMake use of C2 pointers : No

Read offset correction : 667Overread into Lead-In and Lead-Out : NoFill up missing offset samples with silence : YesDelete leading and trailing silent blocks : NoNull samples used in CRC calculations : YesUsed interface : Native Win32 interface for Win NT & 2000Gap handling : Appended to previous track

Used output format : User Defined EncoderSelected bitrate : 768 kBit/sQuality : HighAdd ID3 tag : NoCommand line compressor : C:\Program Files (x86)\Exact Audio Copy\FLAC\FLAC.EXEAdditional command line options : -8 -V -T "ARTIST=%artist%" -T "TITLE=%title%" -T "ALBUM=%albumtitle%" -T "DATE=%year%" -T "TRACKNUMBER=%tracknr%" -T "GENRE=%genre%" -T "PERFORMER=%albuminterpret%" -T "COMPOSER=%composer%" %haslyrics%--tag-from-file=LYRICS="%lyricsfile%"%haslyrics% -T "ALBUMARTIST=%albumartist%" -T "ALBUM ARTIST=%albumartist%" -T "DISCNUMBER=%cdnumber%" -T "TOTALDISCS=%totalcds%" -T "TOTALTRACKS=%numtracks%" -T "COMMENT=%comment%" %source% -o %dest%

TOC of the extracted CD

Track | Start | Length | Start sector | End sector --------------------------------------------------------- 1 | 0:00.00 | 4:25.00 | 0 | 19874 2 | 4:25.00 | 1:45.56 | 19875 | 27805 3 | 6:10.56 | 4:35.70 | 27806 | 48500 4 | 10:46.51 | 1:55.02 | 48501 | 57127 5 | 12:41.53 | 4:50.13 | 57128 | 78890 6 | 17:31.66 | 4:36.64 | 78891 | 99654 7 | 22:08.55 | 3:30.50 | 99655 | 115454 8 | 25:39.30 | 3:48.60 | 115455 | 132614 9 | 29:28.15 | 1:26.26 | 132615 | 139090 10 | 30:54.41 | 1:30.58 | 139091 | 145898 11 | 32:25.24 | 1:22.43 | 145899 | 152091 12 | 33:47.67 | 2:12.25 | 152092 | 162016 13 | 36:00.17 | 1:57.68 | 162017 | 170859 14 | 37:58.10 | 2:07.42 | 170860 | 180426 15 | 40:05.52 | 1:36.02 | 180427 | 187628 16 | 41:41.54 | 2:53.62 | 187629 | 200665 17 | 44:35.41 | 2:54.66 | 200666 | 213781 18 | 47:30.32 | 1:54.61 | 213782 | 222392 19 | 49:25.18 | 0:53.60 | 222393 | 226427 20 | 50:19.03 | 1:40.16 | 226428 | 233943 21 | 51:59.19 | 1:07.27 | 233944 | 238995 22 | 53:06.46 | 2:26.01 | 238996 | 249946 23 | 55:32.47 | 0:59.02 | 249947 | 254373 24 | 56:31.49 | 2:25.69 | 254374 | 265317 25 | 58:57.43 | 1:52.19 | 265318 | 273736 26 | 60:49.62 | 1:09.04 | 273737 | 278915 27 | 61:58.66 | 3:18.69 | 278916 | 293834 28 | 65:17.60 | 3:45.69 | 293835 | 310778 29 | 69:03.54 | 2:22.36 | 310779 | 321464

Track 1

Filename C:\Users\chris\Desktop\Rips\01 - Heaven and Earth.wav

Pre-gap length 0:00:02.00

Peak level 95.6 % Extraction speed 1.3 X Track quality 100.0 % Test CRC 5610FAEA Copy CRC 5610FAEA Track not present in AccurateRip database Copy OK

Track 2

Filename C:\Users\chris\Desktop\Rips\02 - Fire Up The Shuttle.wav

Pre-gap length 0:00:01.00

Peak level 99.4 % Extraction speed 1.1 X Track quality 100.0 % Test CRC 035E8E40 Copy CRC 035E8E40 Track not present in AccurateRip database Copy OK

Track 3

Filename C:\Users\chris\Desktop\Rips\03 - Unauthorized Entry.wav

Pre-gap length 0:00:01.00

Peak level 95.8 % Extraction speed 1.5 X Track quality 100.0 % Test CRC 02A14C06 Copy CRC 02A14C06 Track not present in AccurateRip database Copy OK

Track 4

Filename C:\Users\chris\Desktop\Rips\04 - Deportation.wav

Peak level 94.6 % Extraction speed 1.3 X Track quality 100.0 % Test CRC DE6A9CDB Copy CRC DE6A9CDB Track not present in AccurateRip database Copy OK

Track 5

Filename C:\Users\chris\Desktop\Rips\05 - Darkness.wav

Pre-gap length 0:00:00.74

Peak level 94.4 % Extraction speed 1.5 X Track quality 99.9 % Test CRC 8F589919 Copy CRC 8F589919 Track not present in AccurateRip database Copy OK

Track 6

Filename C:\Users\chris\Desktop\Rips\06 - Things to Come.wav

Pre-gap length 0:00:00.74

Peak level 94.4 % Extraction speed 1.6 X Track quality 99.9 % Test CRC 9EA80D81 Copy CRC 9EA80D81 Track not present in AccurateRip database Copy OK

Track 7

Filename C:\Users\chris\Desktop\Rips\07 - You Said You''d Do Anything.wav

Pre-gap length 0:00:00.66

Peak level 94.4 % Extraction speed 1.8 X Track quality 100.0 % Test CRC 3C67990F Copy CRC 3C67990F Track not present in AccurateRip database Copy OK

Track 8

Filename C:\Users\chris\Desktop\Rips\08 - A Political Sickness.wav

Pre-gap length 0:00:00.71

Peak level 94.4 % Extraction speed 1.9 X Track quality 100.0 % Test CRC 4C16AF9E Copy CRC 4C16AF9E Track not present in AccurateRip database Copy OK

Track 9

Filename C:\Users\chris\Desktop\Rips\09 - Arming Projectile.wav

Pre-gap length 0:00:00.74

Peak level 94.4 % Extraction speed 1.5 X Track quality 100.0 % Test CRC EBE5AA22 Copy CRC EBE5AA22 Track not present in AccurateRip database Copy OK

Track 10

Filename C:\Users\chris\Desktop\Rips\10 - Zero Injuries Sustained.wav

Pre-gap length 0:00:00.74

Peak level 94.4 % Extraction speed 1.6 X Track quality 100.0 % Test CRC 9F1ABE8B Copy CRC 9F1ABE8B Track not present in AccurateRip database Copy OK

Track 11

Filename C:\Users\chris\Desktop\Rips\11 - I''d Like Them Dead.wav

Pre-gap length 0:00:00.74

Peak level 94.4 % Extraction speed 1.6 X Track quality 100.0 % Test CRC 8E825637 Copy CRC 8E825637 Track not present in AccurateRip database Copy OK

Track 12

Filename C:\Users\chris\Desktop\Rips\12 - You Have No Idea.wav

Pre-gap length 0:00:02.00

Peak level 94.4 % Extraction speed 1.8 X Track quality 100.0 % Test CRC 05793DC3 Copy CRC 05793DC3 Track not present in AccurateRip database Copy OK

Track 13

Filename C:\Users\chris\Desktop\Rips\13 - The Raven.wav

Pre-gap length 0:00:00.74

Peak level 94.4 % Extraction speed 1.8 X Track quality 100.0 % Test CRC 168C3514 Copy CRC 168C3514 Track not present in AccurateRip database Copy OK

Track 14

Filename C:\Users\chris\Desktop\Rips\14 - Let The Girls Out.wav

Peak level 94.4 % Extraction speed 1.9 X Track quality 100.0 % Test CRC 03E3768D Copy CRC 03E3768D Track not present in AccurateRip database Copy OK

Track 15

Filename C:\Users\chris\Desktop\Rips\15 - I Don''t Want to Die.wav

Pre-gap length 0:00:00.04

Peak level 63.0 % Extraction speed 1.8 X Track quality 100.0 % Test CRC 1814B6B5 Copy CRC 1814B6B5 Track not present in AccurateRip database Copy OK

Track 16

Filename C:\Users\chris\Desktop\Rips\16 - Matilda.wav

Pre-gap length 0:00:00.74

Peak level 68.2 % Extraction speed 2.0 X Track quality 100.0 % Test CRC 501C150F Copy CRC 501C150F Track not present in AccurateRip database Copy OK

Track 17

Filename C:\Users\chris\Desktop\Rips\17 - Step Aboard.wav

Pre-gap length 0:00:00.74

Peak level 94.4 % Extraction speed 2.1 X Track quality 100.0 % Test CRC C5577C67 Copy CRC C5577C67 Track not present in AccurateRip database Copy OK

Track 18

Filename C:\Users\chris\Desktop\Rips\18 - Heading to Elysium.wav

Pre-gap length 0:00:00.74

Peak level 94.4 % Extraction speed 1.9 X Track quality 100.0 % Test CRC 8CB7B641 Copy CRC 8CB7B641 Track not present in AccurateRip database Copy OK

Track 19

Filename C:\Users\chris\Desktop\Rips\19 - Keep Them Busy.wav

Pre-gap length 0:00:00.74

Peak level 94.4 % Extraction speed 1.5 X Track quality 100.0 % Test CRC 38BDB344 Copy CRC 38BDB344 Track not present in AccurateRip database Copy OK

Track 20

Filename C:\Users\chris\Desktop\Rips\20 - When He Wakes Up.wav

Pre-gap length 0:00:00.74

Peak level 94.4 % Extraction speed 1.5 X Track quality 99.8 % Test CRC 5E5EC9A6 Copy CRC 5E5EC9A6 Track not present in AccurateRip database Copy OK

Track 21

Filename C:\Users\chris\Desktop\Rips\21 - We Do The Hanging.wav

Pre-gap length 0:00:00.74

Peak level 94.4 % Extraction speed 1.2 X Track quality 99.8 % Test CRC D5913B61 Copy CRC D5913B61 Track not present in AccurateRip database Copy OK

Track 22

Filename C:\Users\chris\Desktop\Rips\22 - Kruger Suits Up.wav

Pre-gap length 0:00:01.34

Peak level 94.4 % Extraction speed 2.2 X Track quality 100.0 % Test CRC 8F610278 Copy CRC 8F610278 Track not present in AccurateRip database Copy OK

Track 23

Filename C:\Users\chris\Desktop\Rips\23 - The Armory.wav

Pre-gap length 0:00:01.26

Peak level 94.4 % Extraction speed 1.7 X Track quality 100.0 % Test CRC 7E37AFF2 Copy CRC 7E37AFF2 Track not present in AccurateRip database Copy OK

Track 24

Filename C:\Users\chris\Desktop\Rips\24 - I''m Right Behind You.wav

Pre-gap length 0:00:00.74

Peak level 94.4 % Extraction speed 2.2 X Track quality 100.0 % Test CRC E7EC4812 Copy CRC E7EC4812 Track not present in AccurateRip database Copy OK

Track 25

Filename C:\Users\chris\Desktop\Rips\25 - Fire and Water.wav

Pre-gap length 0:00:01.00

Peak level 94.4 % Extraction speed 2.1 X Track quality 100.0 % Test CRC FE8E23CA Copy CRC FE8E23CA Track not present in AccurateRip database Copy OK

Track 26

Filename C:\Users\chris\Desktop\Rips\26 - The Gantry.wav

Pre-gap length 0:00:01.00

Peak level 94.4 % Extraction speed 1.4 X Track quality 99.8 % Test CRC F7FA83C4 Copy CRC F7FA83C4 Track not present in AccurateRip database Copy OK

Track 27

Filename C:\Users\chris\Desktop\Rips\27 - Breaking a Promise.wav

Pre-gap length 0:00:00.73

Peak level 90.3 % Extraction speed 2.4 X Track quality 100.0 % Test CRC B707CA23 Copy CRC B707CA23 Track not present in AccurateRip database Copy OK

Track 28

Filename C:\Users\chris\Desktop\Rips\28 - Elysium.wav

Pre-gap length 0:00:00.73

Peak level 90.1 % Extraction speed 2.6 X Track quality 100.0 % Test CRC 7A2FF8D6 Copy CRC 7A2FF8D6 Track not present in AccurateRip database Copy OK

Track 29

Filename C:\Users\chris\Desktop\Rips\29 - New Heaven, New Earth.wav

Pre-gap length 0:00:00.74

Peak level 94.4 % Extraction speed 2.3 X Track quality 100.0 % Test CRC 853F9864 Copy CRC 853F9864 Track not present in AccurateRip database Copy OK

None of the tracks are present in the AccurateRip database

No errors occurred

End of status report

==== Log checksum 0A91615FCFC512EE6EE27811C014AE7AAB6DB26CBEB8886F00C2033A816E104A ====
REM GENRE SoundtrackREM DATE 2013REM DISCID A010BE1DREM COMMENT "ExactAudioCopy v1.0b3"FILE "01 - Heaven and Earth.wav" WAVE TRACK 01 AUDIO INDEX 01 00:00:00 TRACK 02 AUDIO INDEX 00 04:24:00FILE "02 - Fire Up The Shuttle.wav" WAVE INDEX 01 00:00:00 TRACK 03 AUDIO INDEX 00 01:44:56FILE "03 - Unauthorized Entry.wav" WAVE INDEX 01 00:00:00FILE "04 - Deportation.wav" WAVE TRACK 04 AUDIO INDEX 01 00:00:00 TRACK 05 AUDIO INDEX 00 01:54:03FILE "05 - Darkness.wav" WAVE INDEX 01 00:00:00 TRACK 06 AUDIO INDEX 00 04:49:14FILE "06 - Things to Come.wav" WAVE INDEX 01 00:00:00 TRACK 07 AUDIO INDEX 00 04:35:73FILE "07 - You Said You''d Do Anything.wav" WAVE INDEX 01 00:00:00 TRACK 08 AUDIO INDEX 00 03:29:54FILE "08 - A Political Sickness.wav" WAVE INDEX 01 00:00:00 TRACK 09 AUDIO INDEX 00 03:47:61FILE "09 - Arming Projectile.wav" WAVE INDEX 01 00:00:00 TRACK 10 AUDIO INDEX 00 01:25:27FILE "10 - Zero Injuries Sustained.wav" WAVE INDEX 01 00:00:00 TRACK 11 AUDIO INDEX 00 01:29:59FILE "11 - I''d Like Them Dead.wav" WAVE INDEX 01 00:00:00 TRACK 12 AUDIO INDEX 00 01:20:43FILE "12 - You Have No Idea.wav" WAVE INDEX 01 00:00:00 TRACK 13 AUDIO INDEX 00 02:11:26FILE "13 - The Raven.wav" WAVE INDEX 01 00:00:00FILE "14 - Let The Girls Out.wav" WAVE TRACK 14 AUDIO INDEX 01 00:00:00 TRACK 15 AUDIO INDEX 00 02:07:38FILE "15 - I Don''t Want to Die.wav" WAVE INDEX 01 00:00:00 TRACK 16 AUDIO INDEX 00 01:35:03FILE "16 - Matilda.wav" WAVE INDEX 01 00:00:00 TRACK 17 AUDIO INDEX 00 02:52:63FILE "17 - Step Aboard.wav" WAVE INDEX 01 00:00:00 TRACK 18 AUDIO INDEX 00 02:53:67FILE "18 - Heading to Elysium.wav" WAVE INDEX 01 00:00:00 TRACK 19 AUDIO INDEX 00 01:53:62FILE "19 - Keep Them Busy.wav" WAVE INDEX 01 00:00:00 TRACK 20 AUDIO INDEX 00 00:52:61FILE "20 - When He Wakes Up.wav" WAVE INDEX 01 00:00:00 TRACK 21 AUDIO INDEX 00 01:39:17FILE "21 - We Do The Hanging.wav" WAVE INDEX 01 00:00:00 TRACK 22 AUDIO INDEX 00 01:05:68FILE "22 - Kruger Suits Up.wav" WAVE INDEX 01 00:00:00 TRACK 23 AUDIO INDEX 00 02:24:50FILE "23 - The Armory.wav" WAVE INDEX 01 00:00:00 TRACK 24 AUDIO INDEX 00 00:58:03FILE "24 - I''m Right Behind You.wav" WAVE INDEX 01 00:00:00 TRACK 25 AUDIO INDEX 00 02:24:69FILE "25 - Fire and Water.wav" WAVE INDEX 01 00:00:00 TRACK 26 AUDIO INDEX 00 01:51:19FILE "26 - The Gantry.wav" WAVE INDEX 01 00:00:00 TRACK 27 AUDIO INDEX 00 01:08:06FILE "27 - Breaking a Promise.wav" WAVE INDEX 01 00:00:00 TRACK 28 AUDIO INDEX 00 03:17:71FILE "28 - Elysium.wav" WAVE INDEX 01 00:00:00 TRACK 29 AUDIO INDEX 00 03:44:70FILE "29 - New Heaven, New Earth.wav" WAVE INDEX 01 00:00:00



Трекер:  [ 25-Сен-2013 08:38 ]

  

Скачать .torrent

Размер .torrent файла 16 KB


Размер: 356 MB
Хэш (hash) релиза: 899c682d0fef1eaa673d42e227aca6a90e89e01e

Торренты, похожие на Элизиум Elysium скачать торрент

Форум Название Автор Размер S L Добавлен
Саундтреки к фильмам и мультфильмам (mp3) ·· (Score) Элизиум: Рай не на Земле / Elysium (by Ryan Amon) - 2013, MP3, 320 kbps Galfimbul 192840524184 MB 0 0 1376728625

11:37

17-Авг-13

Еще никто не оставлял запись к записи скачать торрент Элизиум Elysium . Будь первым!

!Обратная связь