Скачать через торрент музыку DJ Oscar G - Live & Direct Space Miami бесплатно без регистрации torrent

Если у вас наблюдаются проблемы со скриншотами, переходом по ссылками, скачиванием торрентов - проблемы в блокировщике рекламы AdBlock. #хорошегоДня!


Статистика раздачи
Размер:  3.8 GB   |    Зарегистрирован:  6 лет 9 месяцев   |    .torrent скачан:  21 раз   |   
Раздают:  1  
   
Загрузка...
 
Автор Сообщение

Clown

avatar Clown


DJ Oscar G - Live & Direct Space Miami
Год выпуска: 2007 год.
Жанр: House, Deep House, Tech House.
Продолжительность: 78 минут.
Описание :
Данный DVD является бонусом к данному релизу, в который вошли ещё 2 CD.
Бонус DVD "Addicted To Drums" - видеозапись Oscar G в клубе "Space" в Miami. Этот фильм состоит из видеозаписи выступления Oscar G в самом популярном клубе "Space" в Miami. Полностью передана атмосфера ночной жизни в данном развлекательном заведении. Предоставлены интервью с Топ ди-джееми и людьми, непосредственно связанных с этим развлекательным бизнесом.

Качество: DVD 5
Формат: DVD Video
Видео кодек: MPEG2
Аудио кодек: AC-3.
Видео: PAL 720x576 (4:3) 25.00fps 6480kbps
Аудио: Dolby AC3 48000Hz stereo 256kbps 2ch
Oscar G. & Ralph Falcon участники проекта Murk, существующего с 1991 года, за это время они заслужили звание успешнейших продюсеров и диджеев в хаус музыке. За более чем пятнадцать лет совместной работы они создали более сотни синглов и ремиксов! Ральф и Оскар познакомились во время получения второго образования в Маями. Вдвоем они начали диджеить еще будучи тинейджерами, с одним намеринеем: донести свою музыку людям. Вдохновение ребята черпали у таких легенд хауса, как: Frankie Knuckles, Tony Humphries, Junior Vasquez .
Как такового вообще нет, релиз сделан полноценным фильмом.
Video
ID : 224 (0xE0)
Format : MPEG Video
Format version : Version 2
Format profile : Main@Main
Format settings, Matrix : Default
Duration : 20mn 44s
Bit rate mode : Constant
Bit rate : 6 373 Kbps
Nominal bit rate : 6 480 Kbps
Width : 720 pixels
Height : 576 pixels
Display aspect ratio : 4:3
Frame rate : 25.000 fps
Standard : PAL
Colorimetry : 4:2:0
Scan type : Interlaced
Scan order : Top Field First
Bits/(Pixel*Frame) : 0.615
Stream size : 945 MiB (92%)

Audio
ID : 128 (0x80)
Format : AC-3
Format/Info : Audio Coding 3
Duration : 20mn 44s
Bit rate mode : Constant
Bit rate : 256 Kbps
Channel(s) : 2 channels
Channel positions : L R
Sampling rate : 48.0 KHz
Video delay : -216ms
Stream size : 38.0 MiB (4%)


Трекер:  [ 13-Янв-2011 15:05 ]

  

Скачать .torrent

Размер .torrent файла 20 KB


Размер: 3.8 GB
Хэш (hash) релиза: 6525c6506e54ea390901fa3d0032ae77bdf6de31

bot

Топик был перенесен в форум Музыка (Готовые раздачи)

Перенес Roris

bot

Топик был перенесен из форума Музыка (Готовые раздачи) в форум Электронная музыка (video)

Mos

Хотите добавить комментарий к записи скачать торрент DJ Oscar G - Live & Direct Space Miami

!Обратная связь