Скачать порно через торрент Tactless Beast Hunter Бестактно Охотник Зверь UnionPeer.org бесплатно онлайн HD качество

Скачать новое порно 2015, 2014 новинки через торрент UnionPeer.org

Порно торрент бесплатно ЮнионПир.орг

Если у вас наблюдаются проблемы со скриншотами, переходом по ссылками, скачиванием торрентов - проблемы в блокировщике рекламы AdBlock. #хорошегоДня!


Статистика раздачи
Размер:  488 MB   |    Зарегистрирован:  4 года   |    .torrent скачан:  365 раз   |   
Раздают:  1  
   
Загрузка...
 
Автор Сообщение

LinGr

avatar LinGr


Tactless Beast Hunter / 愛なきバケモノハンター~負ければ触手に犯される
Бестактно Охотник Зверь

Год производства: 2013 г.
Жанр: Warrior fantasy rape forced forced / tentacle
Серии: 1
Продолжительность: 16:54
Цензура: Есть во всех файлах

Язык: Японский
Озвучка: Оригинальная
Студия: REDTOMBO / Red Dragonfly (赤いトンボ)

Red Dragonfly
DLLsite

Описание:
in some place in the world, a village was attacked by monsters.
Man is okay to go out of the village because there is no interest at all in man, but because it is sensitive to,
be rape violated the clothes the woman goes out is often the smell of a woman is the demon happened.
Therefore, I was very afraid woman in the village to get out to everyone outside.
It was that you hire a mercenary --- results in order to overcome this situation, people of the village were discussed.
And, mayor turned the hand in various ways to look for a demon hunter. This is the story the heroine, Alice to fight various monsters.

Качество видео: GameRip
Формат видео: WMV
Видео кодек: Windows Media
Аудио кодек: MP3
Видео: Windows Media Video 9 964x720 30fps 3614kbps [Raw Video 0]
Аудио 1: WMA Pro 44100Hz stereo 440kbps [Raw Audio 1]

Video
ID : 1
Format : VC-1
Format profile : MP@HL
Codec ID : WMV3
Codec ID/Info : Windows Media Video 9
Codec ID/Hint : WMV3
Description of the codec : Windows Media Video 9
Duration : 16mn 45s
Bit rate mode : Variable
Bit rate : 3 615 Kbps
Width : 964 pixels
Height : 720 pixels
Display aspect ratio : 4:3
Frame rate : 30.000 fps
Bit depth : 8 bits
Scan type : Progressive
Compression mode : Lossy
Bits/(Pixel*Frame) : 0.174
Stream size : 433 MiB (89%)
Language : Latvian

Audio
ID : 2
Format : WMA
Format profile : Pro
Codec ID : 162
Codec ID/Info : Windows Media Audio
Description of the codec : Windows Media Audio 10 Professional - 440 kbps, 44 kHz, 2 channel 24 bit (A/V) 1-pass CBR
Duration : 16mn 45s
Bit rate mode : Constant
Bit rate : 440 Kbps
Channel(s) : 2 channels
Sampling rate : 44.1 KHz
Bit depth : 24 bits
Stream size : 52.7 MiB (11%)



Трекер:  [ 01-Авг-2013 17:45 ]

  

Скачать .torrent

Размер .torrent файла 19 KB


Размер: 488 MB
Хэш (hash) релиза: a269a4734e4fda846657a30e2fb281844ac36f73

bot

Топик был перенесен в форум Хентай | С цензурой

Перенес LinGr

Хотите добавить комментарий к записи скачать торрент Tactless Beast Hunter Бестактно Охотник Зверь

!Обратная связь