Скачать через торрент музыку Хэллоуин 4: Возвращение Майкла Майерса Halloween 4: The Return Of Michael Myers бесплатно без регистрации torrent

Если у вас наблюдаются проблемы со скриншотами, переходом по ссылками, скачиванием торрентов - проблемы в блокировщике рекламы AdBlock. #хорошегоДня!


Статистика раздачи
Размер:  193 MB   |    Зарегистрирован:  3 года 11 месяцев   |    .torrent скачан:  26 раз   |   
Раздают:  1   Качают:  1  
   
Загрузка...
 
Автор Сообщение

Polarnik

avatar Polarnik


Хэллоуин 4: Возвращение Майкла Майерса / Halloween 4: The Return Of Michael Myers

Жанр: Score
Композитор: Alan Howarth
Год выпуска диска: 1994
Год выпуска фильма: 1988
Страна-производитель диска: США
Издатель (лейбл): Varese Sarabande
Номер по каталогу: VSD-5205

Аудиокодек: FLAC (*.flac)
Тип рипа: tracks+.cue
Битрейт аудио: lossless
Продолжительность: 37:55

Источник: what.cd
Наличие сканов в содержимом раздачи: да

Треклист:
01 Halloween 4 - The Return (3:21)
02 Jamie''s Nightmare (3:13)
03 Garage (2:41)
04 Be Back By 9.30 (1:54)
05 Return Of The Shape (6:50)
06 Schoolhouse (2:36)
07 Power Company (2:47)
08 Police Station (3:17)
09 Downstairs (3:07)
10 Myer''s Finale (4:45)
11 Halloween 4 Reprise (3:25)

Доп. информация: Саундтрек к 4-му "Хэллоуину" 1988 года. Композитором теперь полноправно стал только Алан Ховарт. От Джона Карпентера осталась только знаменитая Halloween Theme!
X Lossless Decoder version 20130407 (143.0)

XLD extraction logfile from 2013-04-23 11:48:50 +0200

Alan Howarth / Halloween 4: The Return of Michael Meyers

Used drive : PLEXTOR BD-ROM PX-B120U (revision 1.06)Media type : Pressed CD

Ripper mode : XLD Secure RipperDisable audio cache : OK for the drive with a cache less than 1375KiBMake use of C2 pointers : NORead offset correction : 696Max retry count : 100Gap status : Analyzed, Appended (except HTOA)

TOC of the extracted CD Track | Start | Length | Start sector | End sector --------------------------------------------------------- 1 | 00:00:37 | 03:20:60 | 37 | 15096 2 | 03:21:22 | 03:13:35 | 15097 | 29606 3 | 06:34:57 | 02:40:40 | 29607 | 41646 4 | 09:15:22 | 01:53:53 | 41647 | 50174 5 | 11:09:00 | 06:50:05 | 50175 | 80929 6 | 17:59:05 | 02:35:52 | 80930 | 92606 7 | 20:34:57 | 02:47:03 | 92607 | 105134 8 | 23:21:60 | 03:17:12 | 105135 | 119921 9 | 26:38:72 | 03:06:48 | 119922 | 133919 10 | 29:45:45 | 04:44:62 | 133920 | 155281 11 | 34:30:32 | 03:24:73 | 155282 | 170654

List of alternate offset correction values # | Absolute | Relative | Confidence ------------------------------------------ 1 | 798 | 102 | 2

AccurateRip Summary (DiscID: 000f2ec6-0084893c-7f08e30b) Track 01 : NG (total 2 submissions) Track 02 : OK (v1, confidence 2/2, with different offset) Track 03 : OK (v1, confidence 2/2, with different offset) Track 04 : OK (v1, confidence 2/2, with different offset) Track 05 : OK (v1, confidence 2/2, with different offset) Track 06 : OK (v1, confidence 2/2, with different offset) Track 07 : OK (v1, confidence 2/2, with different offset) Track 08 : OK (v1, confidence 2/2, with different offset) Track 09 : OK (v1, confidence 2/2, with different offset) Track 10 : OK (v1, confidence 2/2, with different offset) Track 11 : OK (v1, confidence 2/2, with different offset) ->10 tracks accurately ripped, 1 track not

All Tracks Album gain : -0.39 dB Peak : 0.972107 Statistics Read error : 0 Jitter error (maybe fixed) : 0 Retry sector count : 0 Damaged sector count : 0

Track 01 Filename : /Users/User/Music/Alan Howarth - Halloween 4_ The Return of Michael Meyers (1988) [FLAC]/01 Halloween 4_ The Return.flac /Users/User/Music/Alan Howarth - Halloween 4_ The Return of Michael Meyers (1988) [MP3 V0]/01 Halloween 4_ The Return.mp3 /Users/User/Music/Alan Howarth - Halloween 4_ The Return of Michael Meyers (1988) [MP3 320]/01 Halloween 4_ The Return.mp3 /Users/User/Music/Alan Howarth - Halloween 4_ The Return of Michael Meyers (1988) [ALAC]/01 Halloween 4_ The Return.m4a Pre-gap length : 00:02:37

Track gain : -0.10 dB Peak : 0.914795 CRC32 hash (test run) : F755D445 CRC32 hash : F755D445 CRC32 hash (skip zero) : 0469FB99 AccurateRip v1 signature : 51BB2AB1 AccurateRip v2 signature : 1128BD05 ->Rip may not be accurate (total 2 submissions). Statistics Read error : 0 Jitter error (maybe fixed) : 0 Retry sector count : 0 Damaged sector count : 0

Track 02 Filename : /Users/User/Music/Alan Howarth - Halloween 4_ The Return of Michael Meyers (1988) [FLAC]/02 Jamie''s Nightmare.flac /Users/User/Music/Alan Howarth - Halloween 4_ The Return of Michael Meyers (1988) [MP3 V0]/02 Jamie''s Nightmare.mp3 /Users/User/Music/Alan Howarth - Halloween 4_ The Return of Michael Meyers (1988) [MP3 320]/02 Jamie''s Nightmare.mp3 /Users/User/Music/Alan Howarth - Halloween 4_ The Return of Michael Meyers (1988) [ALAC]/02 Jamie''s Nightmare.m4a

Track gain : 1.72 dB Peak : 0.900757 CRC32 hash (test run) : FFC27331 CRC32 hash : FFC27331 CRC32 hash (skip zero) : D3DA487C AccurateRip v1 signature : E4473399 (50B8FE93 w/correction) AccurateRip v2 signature : BF874585 ->Accurately ripped with different offset (v1, confidence 2/2, offset +102) Statistics Read error : 0 Jitter error (maybe fixed) : 0 Retry sector count : 0 Damaged sector count : 0

Track 03 Filename : /Users/User/Music/Alan Howarth - Halloween 4_ The Return of Michael Meyers (1988) [FLAC]/03 Garage.flac /Users/User/Music/Alan Howarth - Halloween 4_ The Return of Michael Meyers (1988) [MP3 V0]/03 Garage.mp3 /Users/User/Music/Alan Howarth - Halloween 4_ The Return of Michael Meyers (1988) [MP3 320]/03 Garage.mp3 /Users/User/Music/Alan Howarth - Halloween 4_ The Return of Michael Meyers (1988) [ALAC]/03 Garage.m4a

Track gain : 2.99 dB Peak : 0.798492 CRC32 hash (test run) : F68E8A02 CRC32 hash : F68E8A02 CRC32 hash (skip zero) : 1035497B AccurateRip v1 signature : FDF9260A (AF00FFA6 w/correction) AccurateRip v2 signature : 09309D8F ->Accurately ripped with different offset (v1, confidence 2/2, offset +102) Statistics Read error : 0 Jitter error (maybe fixed) : 0 Retry sector count : 0 Damaged sector count : 0

Track 04 Filename : /Users/User/Music/Alan Howarth - Halloween 4_ The Return of Michael Meyers (1988) [FLAC]/04 Be Back By 9_30.flac /Users/User/Music/Alan Howarth - Halloween 4_ The Return of Michael Meyers (1988) [MP3 V0]/04 Be Back By 9_30.mp3 /Users/User/Music/Alan Howarth - Halloween 4_ The Return of Michael Meyers (1988) [MP3 320]/04 Be Back By 9_30.mp3 /Users/User/Music/Alan Howarth - Halloween 4_ The Return of Michael Meyers (1988) [ALAC]/04 Be Back By 9_30.m4a

Track gain : 8.94 dB Peak : 0.733032 CRC32 hash (test run) : CB9B5AC4 CRC32 hash : CB9B5AC4 CRC32 hash (skip zero) : 1C95AE0D AccurateRip v1 signature : C1FEE057 (55823C37 w/correction) AccurateRip v2 signature : 5E68D279 ->Accurately ripped with different offset (v1, confidence 2/2, offset +102) Statistics Read error : 0 Jitter error (maybe fixed) : 0 Retry sector count : 0 Damaged sector count : 0

Track 05 Filename : /Users/User/Music/Alan Howarth - Halloween 4_ The Return of Michael Meyers (1988) [FLAC]/05 Return of the Shape.flac /Users/User/Music/Alan Howarth - Halloween 4_ The Return of Michael Meyers (1988) [MP3 V0]/05 Return of the Shape.mp3 /Users/User/Music/Alan Howarth - Halloween 4_ The Return of Michael Meyers (1988) [MP3 320]/05 Return of the Shape.mp3 /Users/User/Music/Alan Howarth - Halloween 4_ The Return of Michael Meyers (1988) [ALAC]/05 Return of the Shape.m4a

Track gain : -0.79 dB Peak : 0.946167 CRC32 hash (test run) : 4347475D CRC32 hash : 4347475D CRC32 hash (skip zero) : 6E19DE7D AccurateRip v1 signature : 8E2AC2B5 (7C4D422D w/correction) AccurateRip v2 signature : 0E90A4DE ->Accurately ripped with different offset (v1, confidence 2/2, offset +102) Statistics Read error : 0 Jitter error (maybe fixed) : 0 Retry sector count : 0 Damaged sector count : 0

Track 06 Filename : /Users/User/Music/Alan Howarth - Halloween 4_ The Return of Michael Meyers (1988) [FLAC]/06 Schoolhouse.flac /Users/User/Music/Alan Howarth - Halloween 4_ The Return of Michael Meyers (1988) [MP3 V0]/06 Schoolhouse.mp3 /Users/User/Music/Alan Howarth - Halloween 4_ The Return of Michael Meyers (1988) [MP3 320]/06 Schoolhouse.mp3 /Users/User/Music/Alan Howarth - Halloween 4_ The Return of Michael Meyers (1988) [ALAC]/06 Schoolhouse.m4a

Track gain : -1.73 dB Peak : 0.913422 CRC32 hash (test run) : 8AF44005 CRC32 hash : 8AF44005 CRC32 hash (skip zero) : 19F11C7D AccurateRip v1 signature : 8F04C84C (9BFE4AE0 w/correction) AccurateRip v2 signature : A96BA615 ->Accurately ripped with different offset (v1, confidence 2/2, offset +102) Statistics Read error : 0 Jitter error (maybe fixed) : 0 Retry sector count : 0 Damaged sector count : 0

Track 07 Filename : /Users/User/Music/Alan Howarth - Halloween 4_ The Return of Michael Meyers (1988) [FLAC]/07 Power Company.flac /Users/User/Music/Alan Howarth - Halloween 4_ The Return of Michael Meyers (1988) [MP3 V0]/07 Power Company.mp3 /Users/User/Music/Alan Howarth - Halloween 4_ The Return of Michael Meyers (1988) [MP3 320]/07 Power Company.mp3 /Users/User/Music/Alan Howarth - Halloween 4_ The Return of Michael Meyers (1988) [ALAC]/07 Power Company.m4a

Track gain : 3.57 dB Peak : 0.817627 CRC32 hash (test run) : BB14CF4C CRC32 hash : BB14CF4C CRC32 hash (skip zero) : DE9DB8D3 AccurateRip v1 signature : 22AF074C (692EBCE8 w/correction) AccurateRip v2 signature : F8D66FE8 ->Accurately ripped with different offset (v1, confidence 2/2, offset +102) Statistics Read error : 0 Jitter error (maybe fixed) : 0 Retry sector count : 0 Damaged sector count : 0

Track 08 Filename : /Users/User/Music/Alan Howarth - Halloween 4_ The Return of Michael Meyers (1988) [FLAC]/08 Police Station.flac /Users/User/Music/Alan Howarth - Halloween 4_ The Return of Michael Meyers (1988) [MP3 V0]/08 Police Station.mp3 /Users/User/Music/Alan Howarth - Halloween 4_ The Return of Michael Meyers (1988) [MP3 320]/08 Police Station.mp3 /Users/User/Music/Alan Howarth - Halloween 4_ The Return of Michael Meyers (1988) [ALAC]/08 Police Station.m4a

Track gain : 2.57 dB Peak : 0.938538 CRC32 hash (test run) : 8F08AF7C CRC32 hash : 8F08AF7C CRC32 hash (skip zero) : 237CEE5D AccurateRip v1 signature : CF491090 (BC3D356A w/correction) AccurateRip v2 signature : E64E1D8F ->Accurately ripped with different offset (v1, confidence 2/2, offset +102) Statistics Read error : 0 Jitter error (maybe fixed) : 0 Retry sector count : 0 Damaged sector count : 0

Track 09 Filename : /Users/User/Music/Alan Howarth - Halloween 4_ The Return of Michael Meyers (1988) [FLAC]/09 Downstairs.flac /Users/User/Music/Alan Howarth - Halloween 4_ The Return of Michael Meyers (1988) [MP3 V0]/09 Downstairs.mp3 /Users/User/Music/Alan Howarth - Halloween 4_ The Return of Michael Meyers (1988) [MP3 320]/09 Downstairs.mp3 /Users/User/Music/Alan Howarth - Halloween 4_ The Return of Michael Meyers (1988) [ALAC]/09 Downstairs.m4a

Track gain : 0.65 dB Peak : 0.862457 CRC32 hash (test run) : F3ABB7B2 CRC32 hash : F3ABB7B2 CRC32 hash (skip zero) : 9DFD8622 AccurateRip v1 signature : 76389247 (ECFB1007 w/correction) AccurateRip v2 signature : 883EED70 ->Accurately ripped with different offset (v1, confidence 2/2, offset +102) Statistics Read error : 0 Jitter error (maybe fixed) : 0 Retry sector count : 0 Damaged sector count : 0

Track 10 Filename : /Users/User/Music/Alan Howarth - Halloween 4_ The Return of Michael Meyers (1988) [FLAC]/10 Myer''s Finale.flac /Users/User/Music/Alan Howarth - Halloween 4_ The Return of Michael Meyers (1988) [MP3 V0]/10 Myer''s Finale.mp3 /Users/User/Music/Alan Howarth - Halloween 4_ The Return of Michael Meyers (1988) [MP3 320]/10 Myer''s Finale.mp3 /Users/User/Music/Alan Howarth - Halloween 4_ The Return of Michael Meyers (1988) [ALAC]/10 Myer''s Finale.m4a

Track gain : -2.54 dB Peak : 0.972107 CRC32 hash (test run) : 71D02C27 CRC32 hash : 71D02C27 CRC32 hash (skip zero) : DFB9B338 AccurateRip v1 signature : AEF81961 (D4D5FC3F w/correction) AccurateRip v2 signature : EDC95454 ->Accurately ripped with different offset (v1, confidence 2/2, offset +102) Statistics Read error : 0 Jitter error (maybe fixed) : 0 Retry sector count : 0 Damaged sector count : 0

Track 11 Filename : /Users/User/Music/Alan Howarth - Halloween 4_ The Return of Michael Meyers (1988) [FLAC]/11 Halloween 4 Reprise.flac /Users/User/Music/Alan Howarth - Halloween 4_ The Return of Michael Meyers (1988) [MP3 V0]/11 Halloween 4 Reprise.mp3 /Users/User/Music/Alan Howarth - Halloween 4_ The Return of Michael Meyers (1988) [MP3 320]/11 Halloween 4 Reprise.mp3 /Users/User/Music/Alan Howarth - Halloween 4_ The Return of Michael Meyers (1988) [ALAC]/11 Halloween 4 Reprise.m4a

Track gain : 0.46 dB Peak : 0.916931 CRC32 hash (test run) : FD132C8C CRC32 hash : FD132C8C CRC32 hash (skip zero) : F8464304 AccurateRip v1 signature : 90CA1BCE (70AEFDF0 w/correction) AccurateRip v2 signature : 87F039EC ->Accurately ripped with different offset (v1, confidence 2/2, offset +102) Statistics Read error : 0 Jitter error (maybe fixed) : 0 Retry sector count : 0 Damaged sector count : 0

No errors occurred

End of status report

-----BEGIN XLD SIGNATURE-----s1vthle18b8vW_3xueLQn0fC.u_4SNr3p8PiBeTPrANvejEHbMl8xy3wTfoVUkVFoaq5ORtpKPypjBi5h8GvC2K_Y08UjU9bFZGjR1a-----END XLD SIGNATURE-----
TITLE "Halloween 4 - The Return Of Michael Myers"PERFORMER "Alan Howarth"REM GENRE "Soundtrack"REM DATE "1988"REM DISCID 7F08E30BREM REPLAYGAIN_ALBUM_GAIN -0.39 dBREM REPLAYGAIN_ALBUM_PEAK 0.972107FILE "01 Halloween 4 - The Return.wav" WAVE TRACK 01 AUDIO TITLE "Halloween 4 - The Return" PERFORMER "Alan Howarth" REM REPLAYGAIN_TRACK_GAIN -0.10 dB REM REPLAYGAIN_TRACK_PEAK 0.914795 PREGAP 00:00:37 INDEX 01 00:00:00FILE "02 Jamie''s Nightmare.wav" WAVE TRACK 02 AUDIO TITLE "Jamie''s Nightmare" PERFORMER "Alan Howarth" REM REPLAYGAIN_TRACK_GAIN 1.72 dB REM REPLAYGAIN_TRACK_PEAK 0.900757 INDEX 01 00:00:00FILE "03 Garage.wav" WAVE TRACK 03 AUDIO TITLE "Garage" PERFORMER "Alan Howarth" REM REPLAYGAIN_TRACK_GAIN 2.99 dB REM REPLAYGAIN_TRACK_PEAK 0.798492 INDEX 01 00:00:00FILE "04 Be Back By 9.30.wav" WAVE TRACK 04 AUDIO TITLE "Be Back By 9.30" PERFORMER "Alan Howarth" REM REPLAYGAIN_TRACK_GAIN 8.94 dB REM REPLAYGAIN_TRACK_PEAK 0.733032 INDEX 01 00:00:00FILE "05 Return Of The Shape.wav" WAVE TRACK 05 AUDIO TITLE "Return Of The Shape" PERFORMER "Alan Howarth" REM REPLAYGAIN_TRACK_GAIN -0.79 dB REM REPLAYGAIN_TRACK_PEAK 0.946167 INDEX 01 00:00:00FILE "06 Schoolhouse.wav" WAVE TRACK 06 AUDIO TITLE "Schoolhouse" PERFORMER "Alan Howarth" REM REPLAYGAIN_TRACK_GAIN -1.73 dB REM REPLAYGAIN_TRACK_PEAK 0.913422 INDEX 01 00:00:00FILE "07 Power Company.wav" WAVE TRACK 07 AUDIO TITLE "Power Company" PERFORMER "Alan Howarth" REM REPLAYGAIN_TRACK_GAIN 3.57 dB REM REPLAYGAIN_TRACK_PEAK 0.817627 INDEX 01 00:00:00FILE "08 Police Station.wav" WAVE TRACK 08 AUDIO TITLE "Police Station" PERFORMER "Alan Howarth" REM REPLAYGAIN_TRACK_GAIN 2.57 dB REM REPLAYGAIN_TRACK_PEAK 0.938538 INDEX 01 00:00:00FILE "09 Downstairs.wav" WAVE TRACK 09 AUDIO TITLE "Downstairs" PERFORMER "Alan Howarth" REM REPLAYGAIN_TRACK_GAIN 0.65 dB REM REPLAYGAIN_TRACK_PEAK 0.862457 INDEX 01 00:00:00FILE "10 Myer''s Finale.wav" WAVE TRACK 10 AUDIO TITLE "Myer''s Finale" PERFORMER "Alan Howarth" REM REPLAYGAIN_TRACK_GAIN -2.54 dB REM REPLAYGAIN_TRACK_PEAK 0.972107 INDEX 01 00:00:00FILE "11 Halloween 4 Reprise.wav" WAVE TRACK 11 AUDIO TITLE "Halloween 4 Reprise" PERFORMER "Alan Howarth" REM REPLAYGAIN_TRACK_GAIN 0.46 dB REM REPLAYGAIN_TRACK_PEAK 0.916931 INDEX 01 00:00:00


Трекер:  [ 25-Сен-2013 08:40 ]

  

Скачать .torrent

Размер .torrent файла 16 KB


Размер: 193 MB
Хэш (hash) релиза: 6923c0a38dc39ae523b54638d079ab830377347a

Торренты, похожие на Хэллоуин 4: Возвращение Майкла Майерса Halloween 4: The Return Of Michael Myers скачать торрент

Форум Название Автор Размер S L Добавлен
Саундтреки к фильмам и мультфильмам (lossless) ·· (Score) Хэллоуин 4: Возвращение Майкла Майерса / Halloween 4: The Return Of Michael Myers [Limited Edition Expanded] (by Alan Howarth) - 2011 (1988), FLAC (tracks+.cue), lossless Polarnik 331282231316 MB 0 0 1375303062

23:37

31-Июл-13

Еще никто не оставлял запись к записи скачать торрент Хэллоуин 4: Возвращение Майкла Майерса Halloween 4: The Return Of Michael Myers . Будь первым!

!Обратная связь