Скачать через торрент музыку Хэллоуин 6: Проклятье Майкла Майерса Halloween: The Curse Of Michael Myers бесплатно без регистрации torrent

Если у вас наблюдаются проблемы со скриншотами, переходом по ссылками, скачиванием торрентов - проблемы в блокировщике рекламы AdBlock. #хорошегоДня!


Статистика раздачи
Размер:  243 MB   |    Зарегистрирован:  4 года   |    .torrent скачан:  23 раза   |   
Раздают:  1  
   
Загрузка...
 
Автор Сообщение

Polarnik

avatar Polarnik


Хэллоуин 6: Проклятье Майкла Майерса / Halloween: The Curse Of Michael Myers

Жанр: Score
Композитор: Alan Howarth
Год выпуска диска: 1995
Страна-производитель диска: США
Издатель (лейбл): Varese Sarabande
Номер по каталогу: VSD-5678

Аудиокодек: FLAC (*.flac)
Тип рипа: tracks+.cue
Битрейт аудио: lossless
Продолжительность: 57:40

Источник: what.cd
Наличие сканов в содержимом раздачи: нет

Треклист:
01 Jamie''s Escape (4:07)
02 Birth Ceremony (2:51)
03 You Can''t Have The Baby (3:29)
04 Empty Stomach (2:54)
05 Watching Mom (4:24)
06 Kara Returns (3:30)
07 Thorn (4:09)
08 Carnival Festival (4:11)
09 It''s Raining Red (2:58)
10 Look Upstairs (6:24)
11 It''s His Game (7:02)
12 Maximum Security (3:57)
13 Operating Room (7:43)

Доп. информация: Саундтрек Алана Ховарта к 6-му "Хэллоуину" (1995).
X Lossless Decoder version 20130407 (143.0)

XLD extraction logfile from 2013-04-23 15:21:58 +0200

Alan Howarth / Halloween: The Curse of Michael Myers

Used drive : PLEXTOR BD-ROM PX-B120U (revision 1.06)Media type : Pressed CD

Ripper mode : XLD Secure RipperDisable audio cache : OK for the drive with a cache less than 1375KiBMake use of C2 pointers : NORead offset correction : 696Max retry count : 100Gap status : Analyzed, Appended (except HTOA)

TOC of the extracted CD Track | Start | Length | Start sector | End sector --------------------------------------------------------- 1 | 00:00:00 | 04:07:15 | 0 | 18539 2 | 04:07:15 | 02:51:35 | 18540 | 31399 3 | 06:58:50 | 03:29:00 | 31400 | 47074 4 | 10:27:50 | 02:53:47 | 47075 | 60096 5 | 13:21:22 | 04:23:53 | 60097 | 79874 6 | 17:45:00 | 03:30:22 | 79875 | 95646 7 | 21:15:22 | 04:08:53 | 95647 | 114299 8 | 25:24:00 | 04:11:32 | 114300 | 133156 9 | 29:35:32 | 02:58:20 | 133157 | 146526 10 | 32:33:52 | 06:23:55 | 146527 | 175306 11 | 38:57:32 | 07:02:35 | 175307 | 206991 12 | 45:59:67 | 03:56:53 | 206992 | 224744 13 | 49:56:45 | 07:43:30 | 224745 | 259499

AccurateRip Summary Disc not found in AccurateRip DB.

All Tracks Album gain : 5.44 dB Peak : 0.738342 Statistics Read error : 0 Jitter error (maybe fixed) : 0 Retry sector count : 0 Damaged sector count : 0

Track 01 Filename : /Users/User/Music/Alan Howarth - Halloween - The Curse of Michael Myers (1995) [FLAC]/01 Jamie''s Escape.flac /Users/User/Music/Alan Howarth - Halloween - The Curse of Michael Myers (1995) [MP3 V0]/01 Jamie''s Escape.mp3 /Users/User/Music/Alan Howarth - Halloween - The Curse of Michael Myers (1995) [MP3 320]/01 Jamie''s Escape.mp3 /Users/User/Music/Alan Howarth - Halloween - The Curse of Michael Myers (1995) [ALAC]/01 Jamie''s Escape.m4a Pre-gap length : 00:02:00

Track gain : 2.96 dB Peak : 0.509308 CRC32 hash (test run) : 7D459980 CRC32 hash : 7D459980 CRC32 hash (skip zero) : 2E7D4E67 AccurateRip v1 signature : 34EC110A AccurateRip v2 signature : 42D73E7C ->Track not present in AccurateRip database. Statistics Read error : 0 Jitter error (maybe fixed) : 0 Retry sector count : 0 Damaged sector count : 0

Track 02 Filename : /Users/User/Music/Alan Howarth - Halloween - The Curse of Michael Myers (1995) [FLAC]/02 Birth Ceremony.flac /Users/User/Music/Alan Howarth - Halloween - The Curse of Michael Myers (1995) [MP3 V0]/02 Birth Ceremony.mp3 /Users/User/Music/Alan Howarth - Halloween - The Curse of Michael Myers (1995) [MP3 320]/02 Birth Ceremony.mp3 /Users/User/Music/Alan Howarth - Halloween - The Curse of Michael Myers (1995) [ALAC]/02 Birth Ceremony.m4a Pre-gap length : 00:01:32

Track gain : 11.15 dB Peak : 0.243011 CRC32 hash (test run) : 30BD2CBD CRC32 hash : 30BD2CBD CRC32 hash (skip zero) : F4017FBF AccurateRip v1 signature : 3A150C0B AccurateRip v2 signature : 7AD28320 ->Track not present in AccurateRip database. Statistics Read error : 0 Jitter error (maybe fixed) : 0 Retry sector count : 0 Damaged sector count : 0

Track 03 Filename : /Users/User/Music/Alan Howarth - Halloween - The Curse of Michael Myers (1995) [FLAC]/03 You Can''t Have the Baby.flac /Users/User/Music/Alan Howarth - Halloween - The Curse of Michael Myers (1995) [MP3 V0]/03 You Can''t Have the Baby.mp3 /Users/User/Music/Alan Howarth - Halloween - The Curse of Michael Myers (1995) [MP3 320]/03 You Can''t Have the Baby.mp3 /Users/User/Music/Alan Howarth - Halloween - The Curse of Michael Myers (1995) [ALAC]/03 You Can''t Have the Baby.m4a Pre-gap length : 00:01:25

Track gain : 7.55 dB Peak : 0.410675 CRC32 hash (test run) : 4C950CA0 CRC32 hash : 4C950CA0 CRC32 hash (skip zero) : 1BD8C962 AccurateRip v1 signature : BEC8829B AccurateRip v2 signature : C671847C ->Track not present in AccurateRip database. Statistics Read error : 0 Jitter error (maybe fixed) : 0 Retry sector count : 0 Damaged sector count : 0

Track 04 Filename : /Users/User/Music/Alan Howarth - Halloween - The Curse of Michael Myers (1995) [FLAC]/04 Empty Stomach.flac /Users/User/Music/Alan Howarth - Halloween - The Curse of Michael Myers (1995) [MP3 V0]/04 Empty Stomach.mp3 /Users/User/Music/Alan Howarth - Halloween - The Curse of Michael Myers (1995) [MP3 320]/04 Empty Stomach.mp3 /Users/User/Music/Alan Howarth - Halloween - The Curse of Michael Myers (1995) [ALAC]/04 Empty Stomach.m4a

Track gain : 8.29 dB Peak : 0.333862 CRC32 hash (test run) : 488D019D CRC32 hash : 488D019D CRC32 hash (skip zero) : B8619C10 AccurateRip v1 signature : F9539851 AccurateRip v2 signature : 9F69D086 ->Track not present in AccurateRip database. Statistics Read error : 0 Jitter error (maybe fixed) : 0 Retry sector count : 0 Damaged sector count : 0

Track 05 Filename : /Users/User/Music/Alan Howarth - Halloween - The Curse of Michael Myers (1995) [FLAC]/05 Watching Mom.flac /Users/User/Music/Alan Howarth - Halloween - The Curse of Michael Myers (1995) [MP3 V0]/05 Watching Mom.mp3 /Users/User/Music/Alan Howarth - Halloween - The Curse of Michael Myers (1995) [MP3 320]/05 Watching Mom.mp3 /Users/User/Music/Alan Howarth - Halloween - The Curse of Michael Myers (1995) [ALAC]/05 Watching Mom.m4a

Track gain : 9.29 dB Peak : 0.458282 CRC32 hash (test run) : 9D8A2CAD CRC32 hash : 9D8A2CAD CRC32 hash (skip zero) : E8949674 AccurateRip v1 signature : 429076A5 AccurateRip v2 signature : 8893FCC4 ->Track not present in AccurateRip database. Statistics Read error : 0 Jitter error (maybe fixed) : 0 Retry sector count : 0 Damaged sector count : 0

Track 06 Filename : /Users/User/Music/Alan Howarth - Halloween - The Curse of Michael Myers (1995) [FLAC]/06 Kara Returns.flac /Users/User/Music/Alan Howarth - Halloween - The Curse of Michael Myers (1995) [MP3 V0]/06 Kara Returns.mp3 /Users/User/Music/Alan Howarth - Halloween - The Curse of Michael Myers (1995) [MP3 320]/06 Kara Returns.mp3 /Users/User/Music/Alan Howarth - Halloween - The Curse of Michael Myers (1995) [ALAC]/06 Kara Returns.m4a

Track gain : 16.65 dB Peak : 0.191711 CRC32 hash (test run) : C841133F CRC32 hash : C841133F CRC32 hash (skip zero) : 5A613FCF AccurateRip v1 signature : 3B29BCB2 AccurateRip v2 signature : 8123426B ->Track not present in AccurateRip database. Statistics Read error : 0 Jitter error (maybe fixed) : 0 Retry sector count : 0 Damaged sector count : 0

Track 07 Filename : /Users/User/Music/Alan Howarth - Halloween - The Curse of Michael Myers (1995) [FLAC]/07 Thorn.flac /Users/User/Music/Alan Howarth - Halloween - The Curse of Michael Myers (1995) [MP3 V0]/07 Thorn.mp3 /Users/User/Music/Alan Howarth - Halloween - The Curse of Michael Myers (1995) [MP3 320]/07 Thorn.mp3 /Users/User/Music/Alan Howarth - Halloween - The Curse of Michael Myers (1995) [ALAC]/07 Thorn.m4a Pre-gap length : 00:01:19

Track gain : 9.63 dB Peak : 0.253693 CRC32 hash (test run) : C6A10C5C CRC32 hash : C6A10C5C CRC32 hash (skip zero) : 6FDFAD59 AccurateRip v1 signature : 7FCC1D48 AccurateRip v2 signature : 7634B4B2 ->Track not present in AccurateRip database. Statistics Read error : 0 Jitter error (maybe fixed) : 0 Retry sector count : 0 Damaged sector count : 0

Track 08 Filename : /Users/User/Music/Alan Howarth - Halloween - The Curse of Michael Myers (1995) [FLAC]/08 Carnival Festival.flac /Users/User/Music/Alan Howarth - Halloween - The Curse of Michael Myers (1995) [MP3 V0]/08 Carnival Festival.mp3 /Users/User/Music/Alan Howarth - Halloween - The Curse of Michael Myers (1995) [MP3 320]/08 Carnival Festival.mp3 /Users/User/Music/Alan Howarth - Halloween - The Curse of Michael Myers (1995) [ALAC]/08 Carnival Festival.m4a

Track gain : 7.79 dB Peak : 0.554443 CRC32 hash (test run) : CD8EB320 CRC32 hash : CD8EB320 CRC32 hash (skip zero) : 3BF09326 AccurateRip v1 signature : 38E9DF04 AccurateRip v2 signature : D955BC28 ->Track not present in AccurateRip database. Statistics Read error : 0 Jitter error (maybe fixed) : 0 Retry sector count : 0 Damaged sector count : 0

Track 09 Filename : /Users/User/Music/Alan Howarth - Halloween - The Curse of Michael Myers (1995) [FLAC]/09 It''s Raining Red.flac /Users/User/Music/Alan Howarth - Halloween - The Curse of Michael Myers (1995) [MP3 V0]/09 It''s Raining Red.mp3 /Users/User/Music/Alan Howarth - Halloween - The Curse of Michael Myers (1995) [MP3 320]/09 It''s Raining Red.mp3 /Users/User/Music/Alan Howarth - Halloween - The Curse of Michael Myers (1995) [ALAC]/09 It''s Raining Red.m4a Pre-gap length : 00:03:03

Track gain : 4.02 dB Peak : 0.519623 CRC32 hash (test run) : 83C837E4 CRC32 hash : 83C837E4 CRC32 hash (skip zero) : 1FFF4900 AccurateRip v1 signature : B46A8828 AccurateRip v2 signature : 7E2E3BB3 ->Track not present in AccurateRip database. Statistics Read error : 0 Jitter error (maybe fixed) : 0 Retry sector count : 0 Damaged sector count : 0

Track 10 Filename : /Users/User/Music/Alan Howarth - Halloween - The Curse of Michael Myers (1995) [FLAC]/10 Look Upstairs.flac /Users/User/Music/Alan Howarth - Halloween - The Curse of Michael Myers (1995) [MP3 V0]/10 Look Upstairs.mp3 /Users/User/Music/Alan Howarth - Halloween - The Curse of Michael Myers (1995) [MP3 320]/10 Look Upstairs.mp3 /Users/User/Music/Alan Howarth - Halloween - The Curse of Michael Myers (1995) [ALAC]/10 Look Upstairs.m4a Pre-gap length : 00:02:05

Track gain : 5.77 dB Peak : 0.580261 CRC32 hash (test run) : 1DEB59DA CRC32 hash : 1DEB59DA CRC32 hash (skip zero) : 323258F5 AccurateRip v1 signature : 47BF1255 AccurateRip v2 signature : F4787307 ->Track not present in AccurateRip database. Statistics Read error : 0 Jitter error (maybe fixed) : 0 Retry sector count : 0 Damaged sector count : 0

Track 11 Filename : /Users/User/Music/Alan Howarth - Halloween - The Curse of Michael Myers (1995) [FLAC]/11 It''s His Game.flac /Users/User/Music/Alan Howarth - Halloween - The Curse of Michael Myers (1995) [MP3 V0]/11 It''s His Game.mp3 /Users/User/Music/Alan Howarth - Halloween - The Curse of Michael Myers (1995) [MP3 320]/11 It''s His Game.mp3 /Users/User/Music/Alan Howarth - Halloween - The Curse of Michael Myers (1995) [ALAC]/11 It''s His Game.m4a

Track gain : 9.47 dB Peak : 0.526184 CRC32 hash (test run) : DAC5BAFE CRC32 hash : DAC5BAFE CRC32 hash (skip zero) : 7803F4FE AccurateRip v1 signature : 5D007855 AccurateRip v2 signature : 05F8EEE5 ->Track not present in AccurateRip database. Statistics Read error : 0 Jitter error (maybe fixed) : 0 Retry sector count : 0 Damaged sector count : 0

Track 12 Filename : /Users/User/Music/Alan Howarth - Halloween - The Curse of Michael Myers (1995) [FLAC]/12 Maximum Security.flac /Users/User/Music/Alan Howarth - Halloween - The Curse of Michael Myers (1995) [MP3 V0]/12 Maximum Security.mp3 /Users/User/Music/Alan Howarth - Halloween - The Curse of Michael Myers (1995) [MP3 320]/12 Maximum Security.mp3 /Users/User/Music/Alan Howarth - Halloween - The Curse of Michael Myers (1995) [ALAC]/12 Maximum Security.m4a

Track gain : 5.62 dB Peak : 0.546417 CRC32 hash (test run) : EEB8EEB9 CRC32 hash : EEB8EEB9 CRC32 hash (skip zero) : 2043DBE8 AccurateRip v1 signature : E9E89AF8 AccurateRip v2 signature : 5832EC63 ->Track not present in AccurateRip database. Statistics Read error : 0 Jitter error (maybe fixed) : 0 Retry sector count : 0 Damaged sector count : 0

Track 13 Filename : /Users/User/Music/Alan Howarth - Halloween - The Curse of Michael Myers (1995) [FLAC]/13 Operting Room.flac /Users/User/Music/Alan Howarth - Halloween - The Curse of Michael Myers (1995) [MP3 V0]/13 Operting Room.mp3 /Users/User/Music/Alan Howarth - Halloween - The Curse of Michael Myers (1995) [MP3 320]/13 Operting Room.mp3 /Users/User/Music/Alan Howarth - Halloween - The Curse of Michael Myers (1995) [ALAC]/13 Operting Room.m4a

Track gain : 4.05 dB Peak : 0.738342 CRC32 hash (test run) : 560B0B44 CRC32 hash : 560B0B44 CRC32 hash (skip zero) : EF5305F2 AccurateRip v1 signature : 8D8E46AB AccurateRip v2 signature : F91006F9 ->Track not present in AccurateRip database. Statistics Read error : 0 Jitter error (maybe fixed) : 0 Retry sector count : 0 Damaged sector count : 0

No errors occurred

End of status report

-----BEGIN XLD SIGNATURE-----7NQzK1ynQTbofCJT.tuixiaqbFRbr.GqEDa8MK08PmtZWWvh0guS3G0MfRdlBSgvpZAdoscXJDAXrrLWGBdbnNx6HRPBPltVSkA5jwq-----END XLD SIGNATURE-----
TITLE "Halloween - The Curse Of Michael Myers"PERFORMER "Alan Howarth"REM GENRE "Soundtrack"REM DATE "1995"REM DISCID C70D840DREM REPLAYGAIN_ALBUM_GAIN 5.44 dBREM REPLAYGAIN_ALBUM_PEAK 0.738342FILE "01 Jamie''s Escape.wav" WAVE TRACK 01 AUDIO TITLE "Jamie''s Escape" PERFORMER "Alan Howarth" REM REPLAYGAIN_TRACK_GAIN 2.96 dB REM REPLAYGAIN_TRACK_PEAK 0.509308 INDEX 01 00:00:00 TRACK 02 AUDIO TITLE "Birth Ceremony" PERFORMER "Alan Howarth" REM REPLAYGAIN_TRACK_GAIN 11.15 dB REM REPLAYGAIN_TRACK_PEAK 0.243011 INDEX 00 04:05:58FILE "02 Birth Ceremony.wav" WAVE INDEX 01 00:00:00 TRACK 03 AUDIO TITLE "You Can''t Have The Baby" PERFORMER "Alan Howarth" REM REPLAYGAIN_TRACK_GAIN 7.55 dB REM REPLAYGAIN_TRACK_PEAK 0.410675 INDEX 00 02:50:10FILE "03 You Can''t Have The Baby.wav" WAVE INDEX 01 00:00:00FILE "04 Empty Stomach.wav" WAVE TRACK 04 AUDIO TITLE "Empty Stomach" PERFORMER "Alan Howarth" REM REPLAYGAIN_TRACK_GAIN 8.29 dB REM REPLAYGAIN_TRACK_PEAK 0.333862 INDEX 01 00:00:00FILE "05 Watching Mom.wav" WAVE TRACK 05 AUDIO TITLE "Watching Mom" PERFORMER "Alan Howarth" REM REPLAYGAIN_TRACK_GAIN 9.29 dB REM REPLAYGAIN_TRACK_PEAK 0.458282 INDEX 01 00:00:00FILE "06 Kara Returns.wav" WAVE TRACK 06 AUDIO TITLE "Kara Returns" PERFORMER "Alan Howarth" REM REPLAYGAIN_TRACK_GAIN 16.65 dB REM REPLAYGAIN_TRACK_PEAK 0.191711 INDEX 01 00:00:00 TRACK 07 AUDIO TITLE "Thorn" PERFORMER "Alan Howarth" REM REPLAYGAIN_TRACK_GAIN 9.63 dB REM REPLAYGAIN_TRACK_PEAK 0.253693 INDEX 00 03:29:03FILE "07 Thorn.wav" WAVE INDEX 01 00:00:00FILE "08 Carnival Festival.wav" WAVE TRACK 08 AUDIO TITLE "Carnival Festival" PERFORMER "Alan Howarth" REM REPLAYGAIN_TRACK_GAIN 7.79 dB REM REPLAYGAIN_TRACK_PEAK 0.554443 INDEX 01 00:00:00 TRACK 09 AUDIO TITLE "It''s Raining Red" PERFORMER "Alan Howarth" REM REPLAYGAIN_TRACK_GAIN 4.02 dB REM REPLAYGAIN_TRACK_PEAK 0.519623 INDEX 00 04:08:29FILE "09 It''s Raining Red.wav" WAVE INDEX 01 00:00:00 TRACK 10 AUDIO TITLE "Look Upstairs" PERFORMER "Alan Howarth" REM REPLAYGAIN_TRACK_GAIN 5.77 dB REM REPLAYGAIN_TRACK_PEAK 0.580261 INDEX 00 02:56:15FILE "10 Look Upstairs.wav" WAVE INDEX 01 00:00:00FILE "11 It''s His Game.wav" WAVE TRACK 11 AUDIO TITLE "It''s His Game" PERFORMER "Alan Howarth" REM REPLAYGAIN_TRACK_GAIN 9.47 dB REM REPLAYGAIN_TRACK_PEAK 0.526184 INDEX 01 00:00:00FILE "12 Maximum Security.wav" WAVE TRACK 12 AUDIO TITLE "Maximum Security" PERFORMER "Alan Howarth" REM REPLAYGAIN_TRACK_GAIN 5.62 dB REM REPLAYGAIN_TRACK_PEAK 0.546417 INDEX 01 00:00:00FILE "13 Operating Room.wav" WAVE TRACK 13 AUDIO TITLE "Operating Room" PERFORMER "Alan Howarth" REM REPLAYGAIN_TRACK_GAIN 4.05 dB REM REPLAYGAIN_TRACK_PEAK 0.738342 INDEX 01 00:00:00


Трекер:  [ 25-Сен-2013 08:40 ]

  

Скачать .torrent

Размер .torrent файла 20 KB


Размер: 243 MB
Хэш (hash) релиза: eb81bfda38e01bddd51f27a7457a85accfa03697

Еще никто не оставлял запись к записи скачать торрент Хэллоуин 6: Проклятье Майкла Майерса Halloween: The Curse Of Michael Myers . Будь первым!

!Обратная связь