Скачать через торрент музыку Male Or Female - Primitive Reflections Twisted From Sound бесплатно без регистрации torrent

Если у вас наблюдаются проблемы со скриншотами, переходом по ссылками, скачиванием торрентов - проблемы в блокировщике рекламы AdBlock. #хорошегоДня!


Статистика раздачи
Размер:  7.94 GB   |    Зарегистрирован:  5 лет 10 месяцев   |    .torrent скачан:  26 раз   |   
Раздают:  1  
   
Загрузка...
 
Автор Сообщение

Galfimbul

avatar Galfimbul


Male Or Female - Primitive Reflections Twisted From Sound + Bonus remix CD

Лэйбл: Dance51.com
Год выпуска: 2004
Страна: США
Жанр: IDM, Electro, Indie Rock, Industrial
Продолжительность: 2:30:00

_______________________________________________________________________________________

Male Or Female - проект участников Front 242; Daniel Bressanutti, Patrick Codenys and Elko Blyweert
_______________________________________________________________________________________

Tracklisting:

CD1 Skeleton Toy \3/ (4:52)
CD2 Eyelid Surgery (4:05)
CD3 Rain \Yellow/ (3:38)
CD4 They Looked Like Fire (4:58)
CD5 Amplifier \3/ (4:54)
CD6 Louder Than Silence (4:19)
CD7 She Kissed An Angel \Dub/ (6:03)
CD8 Could I Love A Pair Of Wings? (5:34)

DVD01 Automat
DVD02 Skeleton Toy (1)
DVD03 Could I Love A Pair Of Wings? (1)
DVD04 Louder Than Silence (1)
DVD05 She Kissed An Angel (1)
DVD06 Girl Drowning
DVD07 Eyelid Surgery (1)
DVD08 Amplifier (1)
DVD09 Rain \Yellow/ (1)
DVD10 Prayback (1)
DVD11 Skeleton Toy (2)
DVD12 Could I Love A Pair Of Wings? (2)
DVD13 She Kissed An Angel (2)
DVD14 Louder Than Silence (2)
DVD15 Amplifier (2)
DVD16 When Everything Was In Black And White (1)
DVD17 Amplifier (3)
DVD18 They Looked Like Fire
DVD19 Hanratai
DVD20 When Everything Was In Black And White (2)
DVD21 When Everything Was In Black And White (3)
DVD22 Eyelid Surgery (2)
DVD23 Prayback (2)
DVD24 She Kissed An Angel (3)
DVD25 Skeleton Toy (3)
DVD26 Rain \Yellow/ (2)
DVD27 Sculpture Sans Titre
_____________________________

+ СКАНЫ 600 DPI

+ CD rip; FLAC
Exact Audio Copy V0.99 prebeta 3 from 28. July 2007

EAC extraction logfile from 31. March 2008, 23:40

Male Or Female / Primitive Reflections Twisted From Sound

Used drive : HP DVD Writer 940d Adapter: 5 ID: 3

Read mode : Secure
Utilize accurate stream : Yes
Defeat audio cache : Yes
Make use of C2 pointers : No

Read offset correction : 6
Overread into Lead-In and Lead-Out : No
Fill up missing offset samples with silence : Yes
Delete leading and trailing silent blocks : No
Null samples used in CRC calculations : No
Used interface : Installed external ASPI interface

Used output format : User Defined Encoder
Selected bitrate : 320 kBit/s
Quality : High
Add ID3 tag : Yes
Command line compressor : C:\Program Files\Exact Audio Copy\Flac\flac.exe
Additional command line options : --fast -T "ARTIST=%a" -T "TITLE=%t" -T "ALBUM=%g" -T "DATE=%y" -T "TRACKNUMBER=%n" -T "GENRE=%m" %s

TOC of the extracted CD

Track | Start | Length | Start sector | End sector
---------------------------------------------------------
1 | 0:00.00 | 4:51.56 | 0 | 21880
2 | 4:51.56 | 4:05.28 | 21881 | 40283
3 | 8:57.09 | 3:38.28 | 40284 | 56661
4 | 12:35.37 | 4:58.11 | 56662 | 79022
5 | 17:33.48 | 4:54.47 | 79023 | 101119
6 | 22:28.20 | 4:18.61 | 101120 | 120530
7 | 26:47.06 | 6:03.07 | 120531 | 147762
8 | 32:50.13 | 5:34.21 | 147763 | 172833

Range status and errors

Selected range

Filename D:\FLAC Folders\Male Or Female - Primitive Reflections Twisted From Sound.wav

Peak level 100.0 %
Range quality 100.0 %
Test CRC EB10A64C
Copy CRC EB10A64C
Copy OK

No errors occurred

AccurateRip summary

Track 1 not present in database
Track 2 not present in database
Track 3 not present in database
Track 4 not present in database
Track 5 not present in database
Track 6 not present in database
Track 7 not present in database
Track 8 not present in database

None of the tracks are present in the AccurateRip database

End of status report
Качество: DVD9
Формат: DVD Video
Видео кодек: MPEG2
Аудио кодек: AC3
Видео: MPEG2 Video 720x480 (16:9) 29.97fps 8000Kbps
Аудио: Dolby AC3 48000Hz 6ch 448Kbps


Трекер:  [ 26-Ноя-2011 20:41 ]

  

Скачать .torrent

Размер .torrent файла 41 KB


Размер: 7.94 GB
Хэш (hash) релиза: f4bbb2339d25c6eaa2cdd545515a0bd03c6f32bf

Еще никто не оставлял запись к записи скачать торрент Male Or Female - Primitive Reflections Twisted From Sound . Будь первым!

!Обратная связь