Скачать порно через торрент Mesu Nochi Torare Ночная бабочка UnionPeer.org бесплатно онлайн HD качество

Скачать новое порно 2015, 2014 новинки через торрент UnionPeer.org

Порно торрент бесплатно ЮнионПир.орг

Если у вас наблюдаются проблемы со скриншотами, переходом по ссылками, скачиванием торрентов - проблемы в блокировщике рекламы AdBlock. #хорошегоДня!


Статистика раздачи
Размер:  410 MB   |    Зарегистрирован:  4 года 3 месяца   |    .torrent скачан:  334 раза   |   
Раздают:  1  
   
Загрузка...
 
Автор Сообщение

LinGr

avatar LinGr


メスのちトラレ
Mesu Nochi Torare / Ночная бабочка
Год производства: 2013 г.
Жанр: Big tits, X-Ray, Rape, School, Virgin, Forcing, Netorare
Серии: ep.1-2 of 2
Продолжительность: 14 мин
Цензура: Есть во всех файлах
Озвучка: Оригинальная
Язык: Японский
Субтитры: Внешние ass
Язык: Русский (LookerA)Субтитры: Внешние ass
Язык: Английский (SubDESU-H)Субтитры: Внешние ass
Язык: Английский (FAKKU)Субтитры: Внешние ass
Язык: Английский (Waku)
Автор оригинала (мангака): Carn
Студия: Mary Jane
Описание:Ну начнём с того что хентай станет продолжением Otome Dori, о котором я напишу позже. Рейко президент студенческого клуба, кавайная, грудастая школьница, конечно не без своих тараканов в голове. Все её любят и уважают, не только за её потрясающую внешность а за ум и стремление :3 У неё много друзей и поклонников, многие из которых не прочь были бы заняться с ней чем нибудь ..... этаким. Рейка планирует возглавить весенний фестиваль, с её упорством ей не отказать, хотя её желание покорять вершины в школьной политике отнюдь не благие, жажда власти ведёт её и она сделает всё чтоб её заполучить. Но вот не задача, как-то раз двое парней застукали её за мастурбацией прямо в школе. Отнекиваться было бессмысленно и по этому чтоб выкрутиться из этого не ловкого положения она решает пойти на некий компромисс. За одно удовлетворить свои сексуальные желания, которые она от всех скрывала. © Ксения Нефёдова
Качество видео: DVDRip
Формат видео: mkv
Видео кодек: H.264/AVC
Аудио кодек: AAC
Видео:
ep.1: MPEG4 (H264) | 720x480 (16:9) | 23,976 fps | 1 442 Kbps | 10 bit
ep.2: MPEG4 (H264) | 720x480 (16:9) | 29,970 fps | 1 971 Kbps | 8 bit
Аудио:
ep.1: JAP | AAC | 48000Hz | 2 ch | 224 Kbps
ep.2: JAP | AAC | 48000Hz | 2 ch | ??? Kbps
Информационные ссылки: MAL | World Art | AniDB

Общее
Уникальный идентификатор : 219640576688943460448408939069380675555 (0xA53D3C8266D480AFB09A4F9F42B6C7E3)
Полное имя : G:\Аниме\!Hen\Mesu Nochi Torare\Mesu Nochi Torare - 01.mkv
Формат : Matroska
Версия формата : Version 4 / Version 2
Размер файла : 176 Мбайт
Продолжительность : 14 м.
Общий поток : 1700 Кбит/сек
Дата кодирования : UTC 2013-07-21 11:04:31
Программа кодирования : mkvmerge v6.3.0 (''You can''t stop me!'') built on Jun 28 2013 20:09:41
Библиотека кодирования : libebml v1.3.0 + libmatroska v1.4.0
Attachment : Yes / Yes / Yes / Yes

Видео
Идентификатор : 1
Формат : AVC
Формат/Информация : Advanced Video Codec
Профиль формата : High 10@L4.0
Параметр CABAC формата : Да
Параметр ReFrames формата : 16 кадров
Идентификатор кодека : V_MPEG4/ISO/AVC
Продолжительность : 14 м.
Битрейт : 1442 Кбит/сек
Ширина : 720 пикселей
Высота : 480 пикселей
Соотношение сторон : 16:9
Соотношение сторон в оригинале : 3:2
Режим частоты кадров : Постоянный
Частота кадров : 23,976 кадра/сек
Стандарт вещания : NTSC
Цветовое пространство : YUV
Субдискретизация насыщенности : 4:2:0
Битовая глубина : 10 бит
Тип развёртки : Прогрессивная
Бит/(Пиксели*Кадры) : 0.174
Размер потока : 149 Мбайт (85%)
Заголовок : Encided by Tiasophix
Библиотека кодирования : x264 core 120 r2148+643+28 a4068c6 tMod [10-bit@4:2:0 X86]
Настройки программы : cabac=1 / ref=16 / deblock=1:-1:-1 / analyse=0x3:0x133 / me=umh / subme=10 / psy=1 / fade_compensate=0.00 / psy_rd=0.75:0.00 / mixed_ref=1 / me_range=24 / chroma_me=1 / trellis=2 / 8x8dct=1 / cqm=0 / deadzone=21,11 / fast_pskip=0 / chroma_qp_offset=-2 / threads=3 / sliced_threads=0 / nr=0 / decimate=0 / interlaced=0 / bluray_compat=0 / constrained_intra=0 / fgo=0 / bframes=8 / b_pyramid=2 / b_adapt=2 / b_bias=0 / direct=3 / weightb=1 / open_gop=0 / weightp=2 / keyint=240 / keyint_min=2 / scenecut=40 / intra_refresh=0 / rc=crf / mbtree=0 / crf=16.0000 / qcomp=0.70 / qpmin=0 / qpmax=46 / qpstep=4 / ip_ratio=1.40 / pb_ratio=1.30 / aq=1:0.80
Язык : Japanese
Default : Да
Forced : Нет

Аудио
Идентификатор : 2
Формат : AC-3
Формат/Информация : Audio Coding 3
Расширение режима : CM (complete main)
Параметр Endianness формата : Big
Идентификатор кодека : A_AC3
Продолжительность : 14 м.
Вид битрейта : Постоянный
Битрейт : 224 Кбит/сек
Каналы : 2 канала
Расположение каналов : Front: L R
Частота : 48,0 КГц
Битовая глубина : 16 бит
Метод сжатия : С потерями
Размер потока : 23,2 Мбайт (13%)
Заголовок : Japanese
Язык : Japanese
Default : Да
Forced : Нет
Общее
Уникальный идентификатор : 193143639925649496660486917838124412656 (0x914E1CAA122429CAB6611B97BD04EEF0)
Полное имя : G:\Аниме\!Hen\Mesu Nochi Torare\Mesu Nochi Torare - 02.mkv
Формат : Matroska
Версия формата : Version 4 / Version 2
Размер файла : 234 Мбайт
Продолжительность : 14 м.
Общий поток : 2285 Кбит/сек
Дата кодирования : UTC 2013-07-21 11:02:21
Программа кодирования : mkvmerge v6.2.0 (''Promised Land'') built on Apr 28 2013 12:22:01
Библиотека кодирования : libebml v1.3.0 + libmatroska v1.4.0
Attachment : Yes

Видео
Идентификатор : 1
Формат : AVC
Формат/Информация : Advanced Video Codec
Профиль формата : High@L3.2
Параметр CABAC формата : Да
Параметр ReFrames формата : 5 кадров
Идентификатор кодека : V_MPEG4/ISO/AVC
Номинальный битрейт : 2500 Кбит/сек
Ширина : 720 пикселей
Высота : 480 пикселей
Соотношение сторон : 16:9
Режим частоты кадров : Переменный
Частота кадров в оригинале : 29,970 кадров/сек
Стандарт вещания : NTSC
Цветовое пространство : YUV
Субдискретизация насыщенности : 4:2:0
Битовая глубина : 8 бит
Тип развёртки : Прогрессивная
Бит/(Пиксели*Кадры) : 0.241
Библиотека кодирования : x264 core 130 r2273 b3065e6
Настройки программы : cabac=1 / ref=5 / deblock=1:-2:-2 / analyse=0x3:0x113 / me=umh / subme=10 / psy=1 / psy_rd=1.00:0.00 / mixed_ref=1 / me_range=48 / chroma_me=1 / trellis=2 / 8x8dct=1 / cqm=0 / deadzone=21,11 / fast_pskip=1 / chroma_qp_offset=-2 / threads=12 / lookahead_threads=1 / sliced_threads=0 / nr=0 / decimate=1 / interlaced=0 / bluray_compat=0 / constrained_intra=0 / bframes=3 / b_pyramid=2 / b_adapt=2 / b_bias=0 / direct=3 / weightb=1 / open_gop=0 / weightp=1 / keyint=250 / keyint_min=25 / scenecut=40 / intra_refresh=0 / rc_lookahead=40 / rc=2pass / mbtree=1 / bitrate=2500 / ratetol=1.0 / qcomp=0.60 / qpmin=0 / qpmax=69 / qpstep=4 / cplxblur=20.0 / qblur=0.5 / ip_ratio=1.40 / aq=1:1.50
Default : Да
Forced : Нет

Аудио
Идентификатор : 2
Формат : AAC
Формат/Информация : Advanced Audio Codec
Профиль формата : LC
Идентификатор кодека : A_AAC
Продолжительность : 14 м.
Каналы : 2 канала
Расположение каналов : Front: L R
Частота : 48,0 КГц
Метод сжатия : С потерями
Default : Да
Forced : Нет


Трекер:  [ 29-Июл-2013 23:08 ]

  

Скачать .torrent

Размер .torrent файла 17 KB


Размер: 410 MB
Хэш (hash) релиза: bf9d973f7d1ee4a58937cbf36d4eb94e77bbafa7

bot

Топик был перенесен в форум Хентай | С цензурой

Перенес LinGr

Хотите добавить комментарий к записи скачать торрент Mesu Nochi Torare Ночная бабочка

!Обратная связь