Скачать порно через торрент Koukai Benjo The Animation Public Toilet UnionPeer.org бесплатно онлайн HD качество

Скачать новое порно 2015, 2014 новинки через торрент UnionPeer.org

Порно торрент бесплатно ЮнионПир.орг

Если у вас наблюдаются проблемы со скриншотами, переходом по ссылками, скачиванием торрентов - проблемы в блокировщике рекламы AdBlock. #хорошегоДня!


Статистика раздачи
Размер:  2.87 GB   |    Зарегистрирован:  4 года   |    .torrent скачан:  243 раза   |   
Раздают:  1  
   
Загрузка...
 
Автор Сообщение

LinGr

avatar LinGr


公開便所 THE ANIMATION
Koukai Benjo The Animation | Public Toilet
Тайный клуб
Год выпуска: 2013
Страна: Япония
Жанр: anal, bdsm, belly inflation, big tits, group, oral, sex toys, school, yaoi
Продолжительность: >1 эп. 30 мин.
Субтитры: Отсутствуют
Цензура: Присутствует
Режиссёр: Hayakawa Naomi
Студия: Pink Pineapple
Описание:
Based on the erotic manga.
Информационные ссылки: AniDB || MAL || World Art || ХентайМаг
Исходник: DVD-5
Видео: MPEG2 | NTSC | 16x9 | 720x480 | 9400 Kbps
Аудио JAP: AC-3 | 48000Hz | 192 Kbps | 2ch

01. I Was Raped by 411 Men
General
Complete name : L:\VIDEO_TS\VTS_01_1.VOB
Format : MPEG-PS
File size : 1 023 MiB
Duration : 18mn 33s
Overall bit rate mode : Variable
Overall bit rate : 7 710 Kbps
Writing library : encoded by TMPGEnc Video Mastering Works 5 Version. 5.3.1.85

Video
ID : 224 (0xE0)
Format : MPEG Video
Format version : Version 2
Format profile : Main@Main
Format settings, BVOP : Yes
Format settings, Matrix : Custom
Format settings, GOP : M=3, N=16
Duration : 18mn 33s
Bit rate mode : Variable
Bit rate : 7 365 Kbps
Maximum bit rate : 9 400 Kbps
Width : 720 pixels
Height : 480 pixels
Display aspect ratio : 16:9
Frame rate : 29.970 fps
Standard : NTSC
Color space : YUV
Chroma subsampling : 4:2:0
Bit depth : 8 bits
Scan type : Interlaced
Scan order : Top Field First
Compression mode : Lossy
Bits/(Pixel*Frame) : 0.711
Stream size : 977 MiB (96%)
Writing library : TMPGEnc Video Mastering Works 5 Version. 5.3.1.85
Color primaries : SMPTE 170M
Transfer characteristics : SMPTE 170M
Matrix coefficients : SMPTE 170M

Audio
ID : 189 (0xBD)-128 (0x80)
Format : AC-3
Format/Info : Audio Coding 3
Mode extension : CM (complete main)
Muxing mode : DVD-Video
Duration : 18mn 33s
Bit rate mode : Constant
Bit rate : 192 Kbps
Channel(s) : 2 channels
Channel positions : Front: L R
Sampling rate : 48.0 KHz
Bit depth : 16 bits
Compression mode : Lossy
Stream size : 25.5 MiB (2%)



Трекер:  [ 29-Июл-2013 23:08 ]

  

Скачать .torrent

Размер .torrent файла 15 KB


Размер: 2.87 GB
Хэш (hash) релиза: f3c5932c26e99d5dc7ec20888f2a3ebf4133f347

bot

Топик был перенесен в форум Хентай | С цензурой

Перенес LinGr

Хотите добавить комментарий к записи скачать торрент Koukai Benjo The Animation Public Toilet

!Обратная связь