Скачать порно через торрент Betsu ni Anta no Tame ni Ookikunattanjanaindakara ne!! Its Not Like I Grow Up Just for You!! UnionPeer.org бесплатно онлайн HD качество

Скачать новое порно 2015, 2014 новинки через торрент UnionPeer.org

Порно торрент бесплатно ЮнионПир.орг

Если у вас наблюдаются проблемы со скриншотами, переходом по ссылками, скачиванием торрентов - проблемы в блокировщике рекламы AdBlock. #хорошегоДня!


Статистика раздачи
Размер:  2.78 GB   |    Зарегистрирован:  4 года 2 месяца   |    .torrent скачан:  132 раза   |   
Раздают:  1  
   
Загрузка...
 
Автор Сообщение

LinGr

avatar LinGr


別にアンタの為に大きくなったんじゃないんだからねっ!!
Betsu ni Anta no Tame ni Ookikunattanjanaindakara ne!!
It's Not Like I Grow Up Just for You!!
Мне нет никакого дела до твоей эрекции!!
Год выпуска: 2011
Страна: Япония
Жанр: big tits, fuck tits, oral, virgins
Продолжительность: >1 эп. 20 мин.
Субтитры: Отсутствуют
Цензура: Присутствует
Режиссёр: Miura Saburou
Студия: ChiChinoya
Описание:
Kaoru learns at a social gathering that a high class lady should be good at fellatio, paizuri and a list of other things she's totally oblivious about. The next day she orders one of her male servants to help her go through that list.
Информационные ссылки: AniDB || MAL || World Art || ХентайМаг
Исходник: DVD-5
Видео: MPEG2 | NTSC | 16x9 | 720x480 | 9000 Kbps
Аудио JAP: AC-3 | 48000Hz | 192 Kbps | 2ch

01. OVA
General
Complete name : L:\VIDEO_TS\VTS_01_1.VOB
Format : MPEG-PS
File size : 1 024 MiB
Duration : 18mn 11s
Overall bit rate mode : Variable
Overall bit rate : 7 865 Kbps

Video
ID : 224 (0xE0)
Format : MPEG Video
Format version : Version 2
Format profile : Main@Main
Format settings, BVOP : Yes
Format settings, Matrix : Custom
Format settings, GOP : M=3, N=15
Duration : 18mn 11s
Bit rate mode : Variable
Bit rate : 7 517 Kbps
Maximum bit rate : 9 000 Kbps
Width : 720 pixels
Height : 480 pixels
Display aspect ratio : 16:9
Frame rate : 29.970 fps
Standard : NTSC
Color space : YUV
Chroma subsampling : 4:2:0
Bit depth : 8 bits
Scan type : Interlaced
Scan order : Bottom Field First
Compression mode : Lossy
Bits/(Pixel*Frame) : 0.726
Stream size : 978 MiB (96%)
Color primaries : SMPTE 170M
Transfer characteristics : SMPTE 170M
Matrix coefficients : SMPTE 170M

Audio
ID : 189 (0xBD)-128 (0x80)
Format : AC-3
Format/Info : Audio Coding 3
Mode extension : CM (complete main)
Muxing mode : DVD-Video
Duration : 18mn 11s
Bit rate mode : Constant
Bit rate : 192 Kbps
Channel(s) : 2 channels
Channel positions : Front: L R
Sampling rate : 48.0 KHz
Bit depth : 16 bits
Compression mode : Lossy
Stream size : 25.0 MiB (2%)



Трекер:  [ 29-Июл-2013 23:08 ]

  

Скачать .torrent

Размер .torrent файла 14 KB


Размер: 2.78 GB
Хэш (hash) релиза: c6c14bfdceec9c3a59706025bdbdfc608527afa8

bot

Топик был перенесен в форум Хентай | С цензурой

Перенес LinGr

Хотите добавить комментарий к записи скачать торрент Betsu ni Anta no Tame ni Ookikunattanjanaindakara ne!! Its Not Like I Grow Up Just for You!!

!Обратная связь