Скачать через торрент музыку Tangerine Dream - 35th Phaedra Anniversary Concert бесплатно без регистрации torrent

Если у вас наблюдаются проблемы со скриншотами, переходом по ссылками, скачиванием торрентов - проблемы в блокировщике рекламы AdBlock. #хорошегоДня!


Статистика раздачи
Размер:  11.33 GB   |    Зарегистрирован:  5 лет 10 месяцев   |    .torrent скачан:  36 раз   |   
Раздают:  1  
   
Загрузка...
 
Автор Сообщение

Galfimbul

avatar Galfimbul


Tangerine Dream - 35th Phaedra Anniversary Concert
Год выпуска: 14 мая 2007 года.
Жанр: Electronic, Krautrock, Ambient.
Продолжительность: 242 минуты.
Описание:
Лимитированное издание в 1000 копий. Концерт проходил в Лондоне, в Shepherd’s Buch Empire 11июня 2005 года. Бонус DVD имеет интервью со всеми участниками группы, саундчек, интервью с фэнами, а также слайд-шоу фотографий концерта

Качество: DVD 9
Формат: DVD Video
Видео кодек: MPEG2
Аудио кодек: AC-3.
Видео: NTSC 720x480 (16:9) 29.97fps 6000kbps
Аудио: Dolby AC3 48000Hz 6ch 320kbps
1. Ricochet Pt.1 Intro [4:09]
2. Phaedra '05 [10:44]
3. Mysterious Semblance at the Strand of Nightmares [6:30]
4. Rubycon Pt.1 [6:19]
5. Force Majeure [4:58]
6. Desert Dream [5:43]
7. Underwater Twilight [5:15]
8. Warsaw in the Sun [4:23]
9. Midnight in Tula [4:08]
10. Silver Scale [5:42]
11. Logos [5:21]
12. Choronzon [4:45]
13. Poland [4:50]
14. Song of the Whale Pt.2 & Pt. 3 [4:24]
15. Oriental Haze [5:05]
16. Bridge [2:33]
17. Towrds the Evening Star (Blue Gravity Mix) [8:27]
18. Catwalk [10:12]
19. Melrose [7:07]
20. Back Street Hero [7:04]
21. Rising Haul in Silence [8:54]
22. Lamb With Radar Eyes [7:07]
23. Meta Morph Magic [8:14]
24. Talking to Maddox [9:04]
25. Homeless [10:49]
26. Purple Haze [3:13]
27. Edgar's Closing Words [2:01]
Video
ID : 224 (0xE0)
Format : MPEG Video
Format version : Version 2
Format profile : Main@Main
Format settings, Matrix : Default
Duration : 22mn 11s
Bit rate mode : Constant
Bit rate : 5 867 Kbps
Nominal bit rate : 6 000 Kbps
Width : 720 pixels
Height : 480 pixels
Display aspect ratio : 16:9
Frame rate : 29.970 fps
Standard : NTSC
Colorimetry : 4:2:0
Scan type : Interlaced
Scan order : Bottom Field First
Bits/(Pixel*Frame) : 0.566
Stream size : 932 MiB (91%)

Audio
ID : 128 (0x80)
Format : AC-3
Format/Info : Audio Coding 3
Duration : 22mn 11s
Bit rate mode : Constant
Bit rate : 320 Kbps
Channel(s) : 6 channels
Channel positions : Front: L C R, Surround: L R, LFE
Sampling rate : 48.0 KHz
Video delay : -133ms
Stream size : 50.8 MiB (5%)
Интервью с:
Edgar Froese
Jerome Froese
Thorsten Quaeschning
Iris Camaa
Linda Spa
Zlatko Perica
Soundcheck
The Fans Interviews
Photo Slideshow
Video
ID : 224 (0xE0)
Format : MPEG Video
Format version : Version 2
Format profile : Main@Main
Format settings, Matrix : Default
Bit rate mode : Constant
Bit rate : 6 000 Kbps
Width : 720 pixels
Height : 480 pixels
Display aspect ratio : 4:3
Frame rate : 29.970 fps
Standard : NTSC
Colorimetry : 4:2:0
Scan type : Interlaced
Scan order : Bottom Field First
Bits/(Pixel*Frame) : 0.579

Audio
ID : 160 (0xA0)
Format : PCM
Format settings, Endianness : Big
Format settings, Sign : Signed
Muxing mode : DVD-Video
Bit rate mode : Constant
Bit rate : 1 536 Kbps
Channel(s) : 2 channels
Channel positions : Front: L R
Sampling rate : 48.0 KHz
Resolution : 16 bits
Video delay : -279ms


Трекер:  [ 27-Ноя-2011 12:24 ]

  

Скачать .torrent

Размер .torrent файла 59 KB


Размер: 11.33 GB
Хэш (hash) релиза: faa35d0307a010264d8588ef5c20a20abe536bd6

Еще никто не оставлял запись к записи скачать торрент Tangerine Dream - 35th Phaedra Anniversary Concert . Будь первым!

!Обратная связь