Скачать через торрент музыку Sasha & John Digweed - Delta Heavy бесплатно без регистрации torrent

Если у вас наблюдаются проблемы со скриншотами, переходом по ссылками, скачиванием торрентов - проблемы в блокировщике рекламы AdBlock. #хорошегоДня!


Статистика раздачи
Размер:  4.37 GB   |    Зарегистрирован:  5 лет 10 месяцев   |    .torrent скачан:  40 раз   |   
Раздают:  1  
   
Загрузка...
 
Автор Сообщение

Galfimbul

avatar Galfimbul


Sasha & John Digweed - Delta Heavy

Год выпуска: 2006
Жанр: documentary
Продолжительность: 56:50

Описание: Delta Heavy - это тур по Америке двух великих DJ'ев Sasha и John Digweed. За 6 недель этого клубного тура, на их выступлениях побывало 85 000 человек! Delta Heavy номинирован на премию DanceStar USA в категории Best Event.

Тур Delta Heavy был организован по типу старых добрых рокинрольных концертов. Два крутых перца Sasha и John Digweed разъезжали на автобусе по всей Америке и крутили свои пластинки на клубных мега-шоу. Организовал этот DJ тур Jimmy Van M.

Данный DVD содержит живые (Live) видео с клубных вечеринок, где играли Sasha и John Digweed, а так же интервью и биографии, VJ mix.

Качество: DVD5
Формат: DVD Video
Видео кодек: MPEG2
Аудио кодек: AC3
Видео: 720х480, 4 743 Kbps, 29.970 fps
Аудио: 48.0 KHz, 2 channels, 192 Kbps
Size: 4.37 Gb ( 4 584 590 KBytes ) - DVD-5
Enabled regions: 1, 2, 3, 4, 5, 6, 7, 8

VTS_01 :
Play Length: 00:14:59+00:04:31+00:03:12+00:03:29+00:03:46
Video: NTSC 4:3 (720x480) VBR
Audio:
Not specified (Dolby AC3, 2 ch)

VTS_02 :
Play Length: 00:56:50
Video: NTSC 16:9 (720x480) VBR, Auto Letterboxed
Audio:
Not specified (Dolby AC3, 2 ch)

VTS_03 :
Play Length: 01:11:31+00:17:29+00:12:28+00:17:48+00:23:45
Video: NTSC 16:9 (720x480) CBR, Auto Letterboxed
Audio:
Not specified (Dolby AC3, 2 ch)

Menu Video:
NTSC 4:3 (720x480) VBR
Menu Subtitles:
Not specified
Menu English Language Unit :
Root Menu
Angle menu
Chapter (PTT) Menu
Video
ID : 224 (0xE0)
Format : MPEG Video
Format version : Version 2
Format profile : Main@Main
Format settings, BVOP : Yes
Format settings, Matrix : Default
Format_Settings_GOP : M=3, N=15
Duration : 27mn 51s
Bit rate mode : Variable
Bit rate : 4 743 Kbps
Nominal bit rate : 7 500 Kbps
Width : 720 pixels
Height : 480 pixels
Display aspect ratio : 16:9
Frame rate : 29.970 fps
Standard : NTSC
Resolution : 8 bits
Colorimetry : 4:2:0
Scan type : Interlaced
Scan order : Top Field First
Bits/(Pixel*Frame) : 0.458
Stream size : 945 MiB (92%)

Audio
ID : 128 (0x80)
Format : AC-3
Format/Info : Audio Coding 3
Duration : 27mn 51s
Bit rate mode : Constant
Bit rate : 192 Kbps
Channel(s) : 2 channels
Channel positions : Front: L R
Sampling rate : 48.0 KHz
Stream size : 38.2 MiB (4%)
Торрент перезалит 31.03.2010

Трекер:  [ 27-Ноя-2011 12:38 ]

  

Скачать .torrent

Размер .torrent файла 23 KB


Размер: 4.37 GB
Хэш (hash) релиза: f6b0a2836f91c5600c71eb12d696c5d647436ad6

Торренты, похожие на Sasha & John Digweed - Delta Heavy скачать торрент

Форум Название Автор Размер S L Добавлен
Электронная музыка (video) ·· Sasha & John Digweed - Delta Heavy (2006) DVDRip [2006 г., documentary, DVDRip] Galfimbul 571914716545 MB 0 0 1294846808

18:40

12-Янв-11

Еще никто не оставлял запись к записи скачать торрент Sasha & John Digweed - Delta Heavy . Будь первым!

!Обратная связь