Скачать через торрент музыку Brian Eno - Music for Airports бесплатно без регистрации torrent

Если у вас наблюдаются проблемы со скриншотами, переходом по ссылками, скачиванием торрентов - проблемы в блокировщике рекламы AdBlock. #хорошегоДня!


Статистика раздачи
Размер:  7.62 GB   |    Зарегистрирован:  5 лет 10 месяцев   |    .torrent скачан:  40 раз   |   
Раздают:  1  
   
Загрузка...
 
Автор Сообщение

Galfimbul

avatar Galfimbul


Brian Eno - Music for Airports (Bang on a Can All-Stars) / In the Ocean (a film)

Год выпуска: 2008
Жанр: Minimal, Ambient, Modern Classical, Contemporary
Продолжительность: 107 min

Режиссер: Frank Scheffer

В ролях:
Music for Airports
Brian Eno: Music for Airports
Bang on a Can, ensemble
Recorded during the Holland Festival, 1999.
длительность: 50:36

In the Ocean
A film by Frank Scheffer
featuring: Steve Reich, John Cage, Brian Eno, Louis Andriessen, Bang On A Can
длительность: 52:43

Описание: На фестивале в Голландии в 1999 году Bang on a Can выступали с исполнением своей версии Music for Airports – классического произведения в жанре амбиентной музыки. Это представление сопровождалось демонстрацией фильма, специально снятого для этой цели Франком Шеффером в аэропорту Амстердама Schiphol.

In the Ocean – документальный фильм Франка Шеффера в котором приняли участие музыканты и композиторы, которые ранее никогда не появлялись в рамках одного фильма: Steve Reich, Brian Eno, Louis Andriessen. Шеффер здесь рассказывает о современной музыке последних тридцати лет, о том как происходит обмен идеями между музыкантами Старого и Нового Света, о взаимном влиянии и пр. В частности это рассказывается на примере группы Bang on A Can в лице трех её постоянных участников: Michael Gordon, David Lang, и Julia Wolfe. Фильм на английском языке, есть субтитры французские и немецкие.

Music for Airports (c)1999
In the Ocean (c)2000
DVD (p)&(c)2008
Released On: February 17, 2009
Label: Medici Arts, Sku #: 3077558

Качество: DVD9
Формат: DVD Video
Видео кодек: MPEG2
Аудио кодек: AAC
Видео: Video: NTSC 4:3 (720x480) VBR 8 000 Kbps
Аудио: Audio: LinearPCM, 2 ch, Dolby AC3, 2 ch
Title:
Size: 7.58 Gb ( 7 952 460 KBytes ) - DVD-9
Enabled regions: 1, 2, 3, 4, 5, 6, 7, 8

VTS_01 :
Play Length: 00:52:40+00:17:03+00:09:10+00:11:51+00:12:21
Video: NTSC 4:3 (720x480) VBR
Audio:
English (LinearPCM, 2 ch)
Subtitles:
Francais
Deutsch

General
Complete name: C:\Music For Airports & In the Ocean\VIDEO_TS\VTS_01_1.VOB
Format: MPEG-PS
File size: 1 024 MiB
Duration: 14mn 48s
Overall bit rate: 9 663 Kbps

Video
ID: 224 (0xE0)
Format: MPEG Video
Format version: Version 2
Format profile: Main@Main
Format settings, Matrix: Default
Duration: 14mn 48s
Bit rate mode: Variable
Bit rate: 7 743 Kbps
Nominal bit rate: 8 000 Kbps
Width: 720 pixels
Height: 480 pixels
Display aspect ratio: 4:3
Frame rate: 29.970 fps
Standard: NTSC
Colorimetry: 4:2:0
Scan type: Interlaced
Scan order: Top Field First
Bits/(Pixel*Frame): 0.748
Stream size: 821 MiB (80%)

Audio
ID: 160 (0xA0)
Format: PCM
Format settings, Endianness: Big
Format settings, Sign: Signed
Muxing mode: DVD-Video
Duration: 14mn 48s
Bit rate mode: Constant
Bit rate: 1 536 Kbps
Channel(s): 2 channels
Channel positions: Front: L R
Sampling rate: 48.0 KHz
Resolution: 16 bits
Stream size: 163 MiB (16%)

Text #1
ID: 32 (0x20)
Format: RLE
Format/Info: Run-length encoding

Text #2
ID: 33 (0x21)
Format: RLE
Format/Info: Run-length encoding

Menu


Трекер:  [ 27-Ноя-2011 14:27 ]

  

Скачать .torrent

Размер .torrent файла 40 KB


Размер: 7.62 GB
Хэш (hash) релиза: 7e49457c0980efe5ba0de17a587ac4e946dde260

Торренты, похожие на Brian Eno - Music for Airports скачать торрент

Форум Название Автор Размер S L Добавлен
Электронная музыка (lossless) ·· (Art Rock/Ambient) [CD] Brian Eno - Ambient 1 (Music For Airports) (EU, Virgin 7243 8 66495 2 2) - 2004, FLAC (image+.cue), lossless Galfimbul 229085286218 MB 0 0 1501774467

18:34

3-Авг-17

Электронная музыка (lossless) ·· (Modern Classical, Minimal, Ambient) [CD] Bang On A Can - Music For Airports: Brian Eno - 1998, FLAC (tracks+.cue), lossless Galfimbul 222131978212 MB 0 0 1411487595

18:53

23-Сен-14

Еще никто не оставлял запись к записи скачать торрент Brian Eno - Music for Airports . Будь первым!

!Обратная связь