Скачать через торрент музыку Bjork - Live at Shepherds Bush Empire бесплатно без регистрации torrent

Если у вас наблюдаются проблемы со скриншотами, переходом по ссылками, скачиванием торрентов - проблемы в блокировщике рекламы AdBlock. #хорошегоДня!


Статистика раздачи
Размер:  4.06 GB   |    Зарегистрирован:  5 лет 10 месяцев   |    .torrent скачан:  51 раз   |   
Раздают:  1  
   
Загрузка...
 
Автор Сообщение

Galfimbul

avatar Galfimbul


Bjork - Live at Shepherds Bush Empire
Год выпуска: 2001
Жанр: Electronic
Продолжительность: 1:16:10
Режиссер:
David Barnard
Качество: DVD5
Формат: DVD Video
Видео кодек:
MPEG2
Аудио кодек:
LPCM
Видео:
PAL 720x576 (4:3) 25.00fps 5430 Kbps
Аудио:
LPCM 48.0 KHz stereo 1536kbps
01 Headphones
02 Army of Me
03 One Day
04 The Modern Things
05 Venus As A Boy
06 You've Been Flirting Again
07 Isobel
08 Possibly Maybe
09 I Go Humble
10 Big Time Sensuality
11 Hyperballad
12 Enjoy
13 Human Behaviour
14 Anchor Song
15 I Miss You
16 Crying
17 Violently Happy
General
Complete name : D:\Музыка\Björk Guðmundsdóttir\concert\Live at Shepherds Bush Empire\VTS_02_1.VOB
Format : MPEG-PS
File size : 1 024 MiB
Duration : 19mn 44s
Overall bit rate : 7 254 Kbps

Video
ID : 224 (0xE0)
Format : MPEG Video
Format version : Version 2
Format profile : Main@Main
Format settings, BVOP : Yes
Format settings, Matrix : Default
Duration : 19mn 44s
Bit rate mode : Variable
Bit rate : 5 430 Kbps
Nominal bit rate : 8 500 Kbps
Width : 720 pixels
Height : 576 pixels
Display aspect ratio : 4:3
Frame rate : 25.000 fps
Standard : PAL
Resolution : 8 bits
Colorimetry : 4:2:0
Scan type : Interlaced
Scan order : Top Field First
Bits/(Pixel*Frame) : 0.524
Stream size : 767 MiB (75%)

Audio
ID : 160 (0xA0)
Format : PCM
Format settings, Endianness : Big
Format settings, Sign : Signed
Muxing mode : DVD-Video
Duration : 19mn 43s
Bit rate mode : Constant
Bit rate : 1 536 Kbps
Channel(s) : 2 channels
Channel positions : Front: L R
Sampling rate : 48.0 KHz
Resolution : 16 bits
Stream size : 217 MiB (21%)


Трекер:  [ 27-Ноя-2011 14:25 ]

  

Скачать .torrent

Размер .torrent файла 21 KB


Размер: 4.06 GB
Хэш (hash) релиза: 8389e405b3fd6155de53353587a2d545705b2342

Еще никто не оставлял запись к записи скачать торрент Bjork - Live at Shepherds Bush Empire . Будь первым!

!Обратная связь