Скачать через торрент музыку Frankie Goes To Hollywood - Hard On бесплатно без регистрации torrent

Если у вас наблюдаются проблемы со скриншотами, переходом по ссылками, скачиванием торрентов - проблемы в блокировщике рекламы AdBlock. #хорошегоДня!


Статистика раздачи
Размер:  7.11 GB   |    Зарегистрирован:  5 лет 10 месяцев   |    .torrent скачан:  39 раз   |   
Раздают:  1  
   
Загрузка...
 
Автор Сообщение

Galfimbul

avatar Galfimbul


Frankie Goes To Hollywood - Hard On
Год выпуска: 8 октября 2003 года.
Жанр: Rock, Pop.
Продолжительность: 125 минут.
Описание:
Сборник видеоклипов, интервью, биография, дискография.

Качество: DVD 9
Формат: DVD Video
Видео кодек: MPEG2
Аудио кодек: AC-3.
Видео: NTSC 720x480 (4:3) 29.97fps 7800kbps
Аудио: Dolby AC3 48000Hz 6ch 448kbps
Frankie Goes To Hollywood - популярная в 80-х группа Велибритании. Группу основал в Ливерпуле Холли Джонсон (вокалист), а также Пол Рутерфорд (вокалист, клавишник), Питер Джилл (басы, ударные), Марк О’Тул (бас-гитара) и Брайан Нэш (гитара). Дебютный сингл группы «Relax», был запрещён телекомпанией BBC, будучи на шестом месте в национальном чарте, но впоследствии пять недель удерживал высочайшие позиции в других чартах, что позволило ему приобрести славу наиболее успешной композиции 1984 года и войти в состав семидесяти наиболее продаваемых синглов за всю историю (по состоянию на май 2006 года). Благодаря последующим синглам «Two Tribes» и «The Power of Love», они стали наиболее успешной по результатам первых трёх синглов группой в 1984. На стороне В кассеты с первым синглом, Холли Джонсон разместил объяснения названия группы: оно образовалось благодаря статье в журнале «New Yorker», называвшейся «Frankie Goes to Hollywood», и картинке с изображением Фрэнка Синатры.
Основной состав группы сформировался к концу 1970-х. Главный вокалист, Холи Джонсон, также играл на басах в группе Big in Japan, а также записал два сольных сингла. Пол Рутерфорд — пел также в группе The Spitfire Boys.
1.Relax
2.Two Tribes
3.The Power of Love
4.Welcome to the Pleasuredome
5.Rage Hard
6.Warriors of the Wasteland
7.Watching the Wildlife
8.Relax [Live Version]
9.Relax
10.Two Tribes: '93
11.The Power of Love [version 2]
12.Welcome to the Pleasuredome ('93)
13. The Power of Love, (2k)
14.Two Tribes: 2k
Features:
Production Interview -
1. Paul Rutherford
2. Trevor Horn
3. Paul Morley
4. Paul Lester
5. Gary Farrow
Video
ID : 224 (0xE0)
Format : MPEG Video
Format version : Version 2
Format profile : Main@Main
Format settings, Matrix : Default
Duration : 7mn 52s
Bit rate mode : Variable
Bit rate : 7 519 Kbps
Nominal bit rate : 7 800 Kbps
Width : 720 pixels
Height : 480 pixels
Display aspect ratio : 4:3
Frame rate : 29.970 fps
Standard : NTSC
Colorimetry : 4:2:0
Scan type : Interlaced
Scan order : Bottom Field First
Bits/(Pixel*Frame) : 0.726
Stream size : 423 MiB (88%)

Audio #1
ID : 128 (0x80)
Format : AC-3
Format/Info : Audio Coding 3
Duration : 7mn 51s
Bit rate mode : Constant
Bit rate : 448 Kbps
Channel(s) : 6 channels
Channel positions : Front: L C R, Surround: L R, LFE
Sampling rate : 48.0 KHz
Stream size : 25.2 MiB (5%)

Audio #2
ID : 129 (0x81)
Format : AC-3
Format/Info : Audio Coding 3
Duration : 7mn 51s
Bit rate mode : Constant
Bit rate : 192 Kbps
Channel(s) : 2 channels
Channel positions : L R
Sampling rate : 48.0 KHz
Stream size : 10.8 MiB (2%)


Трекер:  [ 27-Ноя-2011 14:52 ]

  

Скачать .torrent

Размер .torrent файла 41 KB


Размер: 7.11 GB
Хэш (hash) релиза: 86fd3dc7cb0de9781cf9ee4f6eda9eb32f1e5395

Торренты, похожие на Frankie Goes To Hollywood - Hard On скачать торрент

Форум Название Автор Размер S L Добавлен
Электронная музыка (video) ·· Frankie Goes To Hollywood - HARD ON (клипы) [2000 г., pop-rock, new-wave, DVD5 (сжатый)] Galfimbul 46808432644.36 GB 0 0 1294835640

15:34

12-Янв-11

Еще никто не оставлял запись к записи скачать торрент Frankie Goes To Hollywood - Hard On . Будь первым!

!Обратная связь