Скачать через торрент музыку Schiller - Lichtblick бесплатно без регистрации torrent

Если у вас наблюдаются проблемы со скриншотами, переходом по ссылками, скачиванием торрентов - проблемы в блокировщике рекламы AdBlock. #хорошегоДня!


Статистика раздачи
Размер:  4.97 GB   |    Зарегистрирован:  5 лет 10 месяцев   |    .torrent скачан:  45 раз   |   
Раздают:  1  
   
Загрузка...
 
Автор Сообщение

Galfimbul

avatar Galfimbul


Schiller - Lichtblick (DVD2: Live in Berlin)


Страна: Germany
Жанр: Electronic
Продолжительность: 00:51:37
Год выпуска: 2010
Лейбл: Island (Universal)
Треклист:
01. Schiller
02. Soho
03. Polarstern
04. Atemlos
05. Leidenschaft
06. Heimathafen
07. Tiefblau
08. Irrlicht
09. La Mer
10. Himmelblau
Ten More
Zeitschleife
+Wall of Friends
Качество : DVD9
Формат: DVD video
Видео кодек: MPEG2
Аудио кодек: DTS, AC-3
Видео: PAL 720х576, 25 fps, 9800 Kbps
Аудио: DTS: 5.1, 48 KHz, 24bit, 1536 kbps
Аудио #2: AC-3: 2.0, 48 KHz, 16bit, 224 kbps


General
Complete name : I:\Musik\DVD\Schiller - Lichtblick\Live in Berlin (DVD2)\VIDEO_TS\VTS_04_2.VOB
Format : MPEG-PS
File size : 1 024 MiB
Duration : 18mn 29s
Overall bit rate : 7 741 Kbps

Video
ID : 224 (0xE0)
Format : MPEG Video
Format version : Version 2
Format profile : Main@Main
Format settings, BVOP : Yes
Format settings, Matrix : Default
Duration : 18mn 28s
Bit rate mode : Variable
Bit rate : 6 608 Kbps
Nominal bit rate : 9 800 Kbps
Width : 720 pixels
Height : 576 pixels
Display aspect ratio : 16:9
Frame rate : 25.000 fps
Standard : PAL
Color space : YUV
Chroma subsampling : 4:2:0
Bit depth : 8 bits
Scan type : Progressive
Scan order : Top Field First
Compression mode : Lossy
Bits/(Pixel*Frame) : 0.637
Stream size : 874 MiB (85%)

Audio #1
ID : 129 (0x81)
Format : AC-3
Format/Info : Audio Coding 3
Mode extension : CM (complete main)
Duration : 18mn 29s
Bit rate mode : Constant
Bit rate : 224 Kbps
Channel(s) : 2 channels
Channel positions : Front: L R
Sampling rate : 48.0 KHz
Bit depth : 16 bits
Compression mode : Lossy
Video delay : -648ms
Stream size : 29.6 MiB (3%)

Audio #2
ID : 136 (0x88)
Format : DTS
Format/Info : Digital Theater Systems
Duration : 18mn 29s
Bit rate mode : Constant
Bit rate : 755 Kbps
Channel(s) : 6 channels
Channel positions : Front: L C R, Side: L R, LFE
Sampling rate : 48.0 KHz
Bit depth : 16 bits
Compression mode : Lossy
Video delay : -765ms
Stream size : 99.8 MiB (10%)


Трекер:  [ 27-Ноя-2011 18:39 ]

  

Скачать .torrent

Размер .torrent файла 28 KB


Размер: 4.97 GB
Хэш (hash) релиза: 14bbd2c587601b16553551aa7888d07766027d54

Торренты, похожие на Schiller - Lichtblick скачать торрент

Форум Название Автор Размер S L Добавлен
Электронная музыка (video) ·· Schiller - Lichtblick (DVD1: Atemlos Live) [2010, Electronic, DVD9] Galfimbul 78596608007.32 GB 0 0 1294835438

15:30

12-Янв-11

Еще никто не оставлял запись к записи скачать торрент Schiller - Lichtblick . Будь первым!

!Обратная связь